<?xml version="1.0" standalone="no"?>
<!DOCTYPE svg PUBLIC "-//W3C//DTD SVG 1.1//EN" "http://www.w3.org/Graphics/SVG/1.1/DTD/svg11.dtd" >
<svg xmlns="http://www.w3.org/2000/svg">
<metadata>Generated by IcoMoon</metadata>
<defs>
<font id="icomoon" horiz-adv-x="1024">
<font-face units-per-em="1024" ascent="870.850439882698" descent="-153.14956011730206" />
<missing-glyph horiz-adv-x="1024" />
<glyph unicode="&#x20;" horiz-adv-x="0" d="" />
<glyph unicode="&#xe800;" glyph-name="dot-3" horiz-adv-x="949" d="M113.413 419.735q47.426 0 80.419-32.992t32.992-80.419q0-45.364-32.992-79.388t-80.419-34.023-80.419 34.023-32.992 79.388q0 47.426 32.992 80.419t80.419 32.992zM474.272 419.735q47.426 0 80.419-32.992t32.992-80.419q0-45.364-34.023-79.388t-79.388-34.023-79.388 34.023-34.023 79.388q0 47.426 32.992 80.419t80.419 32.992zM835.133 419.735q47.426 0 80.419-32.992t32.992-80.419q0-45.364-32.992-79.388t-80.419-34.023-80.419 34.023-32.992 79.388q0 47.426 32.992 80.419t80.419 32.992z" />
<glyph unicode="&#xe801;" glyph-name="up-open-big" horiz-adv-x="892" d="M828.947 79.495l-383.542 369.107-381.48-369.107q-26.806-22.682-51.55 0-24.744 24.744 0 51.55l408.287 402.101q26.806 26.806 49.488 0l408.287-402.101q24.744-26.806 0-51.55-26.806-22.682-49.488 0z" />
<glyph unicode="&#xe802;" glyph-name="down-open-big" horiz-adv-x="894" d="M64.953 533.148l381.48-367.045 383.542 367.045q22.682 26.806 49.488 0 26.806-22.682 0-49.488l-408.287-404.163q-22.682-22.682-49.488 0l-408.287 404.163q-26.806 26.806 0 49.488 24.744 24.744 51.55 0z" />
<glyph unicode="&#xe804;" glyph-name="right-open-big" horiz-adv-x="476" d="M13.403-75.158l369.107 381.48-369.107 383.542q-26.806 26.806 0 49.488 26.806 26.806 49.488 0l404.163-406.225q24.744-26.806 0-51.55l-404.163-406.225q-22.682-26.806-49.488 0-26.806 22.682 0 49.488z" />
<glyph unicode="&#xe805;" glyph-name="graph" d="M932.049 564.079c54.643 0 98.978-43.302 98.978-96.916v-579.438c0-53.612-44.333-96.916-98.978-96.916h-95.885c-54.643 0-100.009 43.302-100.009 96.916v579.438c0 53.612 45.364 96.916 100.009 96.916zM194.864 306.322c54.643 0 100.009-46.395 100.009-104.133v-307.246c0-57.736-45.364-104.133-100.009-104.133h-94.854c-55.674 0-100.009 46.395-100.009 104.133v307.246c0 57.736 44.333 104.133 100.009 104.133zM562.942 821.836c55.674 0 100.009-45.364 100.009-101.040v-828.947c0-55.674-44.333-101.040-100.009-101.040h-94.854c-55.674 0-100.009 45.364-100.009 101.040v828.947c0 55.674 44.333 101.040 100.009 101.040zM932.049 486.752h-95.885c-11.341 0-19.589-8.248-19.589-19.589v-579.438c0-11.341 8.248-19.589 19.589-19.589h95.885c10.31 0 19.589 8.248 19.589 19.589v579.438c0 11.341-9.279 19.589-19.589 19.589zM562.942 741.414h-94.854c-11.341 0-20.62-9.279-20.62-20.62v-828.947c0-11.341 9.279-20.62 20.62-20.62h94.854c11.341 0 20.62 9.279 20.62 20.62v828.947c0 11.341-9.279 20.62-20.62 20.62zM194.864 222.809h-94.854c-11.341 0-20.62-9.279-20.62-20.62v-307.246c0-11.341 9.279-20.62 20.62-20.62h94.854c11.341 0 20.62 9.279 20.62 20.62v307.246c0 11.341-9.279 20.62-20.62 20.62z" />
<glyph unicode="&#xe806;" glyph-name="icn-filled-check" d="M374.262-47.321l-287.657 320.65c-17.527 19.589-17.527 50.519 0 70.108l62.891 70.108c16.496 18.558 44.333 18.558 61.86 0l193.833-216.515 414.473 462.931c17.527 19.589 45.364 19.589 61.86 0l62.891-70.108c17.527-18.558 17.527-50.519 0-69.077l-508.295-568.097c-17.527-19.589-45.364-19.589-61.86 0z" />
<glyph unicode="&#xe807;" glyph-name="minus" horiz-adv-x="811" d="M810.388 398.083v-110.32q0-22.682-16.496-39.178t-39.178-15.465h-699.037q-23.713 0-39.178 15.465t-16.496 39.178v110.32q0 23.713 16.496 39.178t39.178 16.496h699.037q23.713 0 39.178-16.496t16.496-39.178z" />
<glyph unicode="&#xe809;" glyph-name="left-open-big-1" horiz-adv-x="476" d="M466.024-75.158q26.806-26.806 0-49.488-26.806-26.806-49.488 0l-404.163 406.225q-24.744 24.744 0 51.55l404.163 406.225q22.682 26.806 49.488 0 26.806-22.682 0-49.488l-369.107-383.542z" />
<glyph unicode="&#xe80b;" glyph-name="setting-user" d="M813.481 306.322c14.434 0 27.837-10.31 30.93-23.713l8.248-39.178c20.62-8.248 40.209-18.558 56.705-31.961l40.209 12.372c14.434 5.155 29.899-1.031 37.116-13.403l40.209-65.984c7.217-12.372 5.155-27.837-6.186-37.116l-31.961-27.837c2.062-10.31 3.093-20.62 3.093-30.93s-1.031-20.62-3.093-30.93l31.961-26.806c11.341-10.31 13.403-25.775 6.186-38.147l-40.209-65.984c-7.217-12.372-22.682-18.558-37.116-13.403l-40.209 12.372c-16.496-13.403-36.085-23.713-56.705-31.961l-8.248-39.178c-3.093-13.403-16.496-23.713-30.93-23.713h-80.419c-14.434 0-27.837 10.31-30.93 23.713l-8.248 39.178c-20.62 8.248-40.209 18.558-56.705 31.961l-40.209-12.372c-14.434-5.155-29.899 1.031-37.116 13.403l-40.209 65.984c-7.217 12.372-5.155 27.837 6.186 38.147l31.961 26.806c-2.062 10.31-3.093 20.62-3.093 30.93s1.031 20.62 3.093 30.93l-31.961 27.837c-11.341 9.279-13.403 24.744-6.186 37.116l40.209 65.984c7.217 12.372 22.682 18.558 37.116 13.403l40.209-12.372c17.527 13.403 36.085 23.713 56.705 31.961l8.248 39.178c3.093 13.403 16.496 23.713 30.93 23.713zM787.704 246.522h-28.868l-7.217-32.992c-2.062-10.31-11.341-19.589-21.651-22.682-23.713-6.186-46.395-18.558-63.922-35.054-8.248-7.217-20.62-10.31-31.961-6.186l-31.961 10.31-15.465-24.744 25.775-21.651c9.279-7.217 12.372-18.558 10.31-29.899-3.093-11.341-5.155-22.682-5.155-35.054 0-11.341 2.062-23.713 5.155-35.054 2.062-10.31-1.031-21.651-10.31-29.899l-25.775-21.651 15.465-24.744 31.961 10.31c11.341 4.124 23.713 1.031 31.961-6.186 17.527-16.496 40.209-28.868 63.922-35.054 10.31-3.093 19.589-12.372 21.651-22.682l7.217-32.992h28.868l7.217 32.992c3.093 10.31 11.341 19.589 21.651 22.682 23.713 6.186 46.395 18.558 63.922 35.054 8.248 7.217 20.62 10.31 31.961 6.186l32.992-10.31 14.434 24.744-25.775 21.651c-8.248 8.248-12.372 19.589-9.279 29.899 2.062 11.341 4.124 23.713 4.124 35.054 0 12.372-2.062 23.713-4.124 35.054-3.093 11.341 1.031 22.682 9.279 29.899l25.775 21.651-14.434 24.744-32.992-10.31c-11.341-4.124-23.713-1.031-31.961 6.186-17.527 16.496-40.209 28.868-63.922 35.054-10.31 3.093-18.558 12.372-21.651 22.682l-7.217 32.992zM773.27 144.449c55.674 0 101.040-42.271 101.040-95.885 0-52.581-45.364-95.885-101.040-95.885s-101.040 43.302-101.040 95.885c0 53.612 45.364 95.885 101.040 95.885zM773.27 84.651c-20.62 0-38.147-16.496-38.147-36.085s17.527-36.085 38.147-36.085c20.62 0 38.147 16.496 38.147 36.085s-17.527 36.085-38.147 36.085zM467.055 822.867c-149.499 0-270.13-123.723-270.13-276.316 0-94.854 46.395-178.368 117.537-228.888-65.984-22.682-126.816-61.86-177.337-113.413-88.668-90.73-137.127-211.36-137.127-339.208h73.201c0 222.701 176.306 404.163 393.852 404.163 148.468 0 269.099 124.754 269.099 277.347s-120.63 276.316-269.099 276.316zM469.117 344.47c-111.351 0-201.050 91.761-201.050 205.174 0 112.382 89.699 205.174 201.050 205.174s200.019-92.792 200.019-205.174-89.699-205.174-200.019-205.174z" />
<glyph unicode="&#xe80c;" glyph-name="ic-refresh" d="M514.481 821.836c-283.533 0-514.481-230.95-514.481-514.481s230.95-514.481 514.481-514.481c283.533 0 514.481 230.95 514.481 514.481s-230.95 514.481-514.481 514.481zM548.508 2.168c-24.744-4.124-73.201-14.434-97.947-16.496-21.651-2.062-41.24 10.31-52.581 27.837-12.372 16.496-15.465 39.178-8.248 58.767l96.916 267.037h-101.040c0 55.674 42.271 96.916 95.885 112.382 24.744 8.248 72.17 18.558 96.916 16.496 15.465-1.031 41.24-10.31 53.612-27.837s14.434-39.178 7.217-58.767l-96.916-267.037h101.040c0-55.674-40.209-103.102-94.854-112.382zM578.407 500.155c-35.054 0-63.922 28.868-63.922 64.953 0 35.054 28.868 63.922 63.922 63.922 36.085 0 64.953-28.868 64.953-63.922 0-36.085-28.868-64.953-64.953-64.953z" />
<glyph unicode="&#xe80d;" glyph-name="exclamation-circle-solid" d="M1031.028 306.322c0-284.564-230.95-515.512-515.512-515.512s-515.512 230.95-515.512 515.512c0 284.564 230.95 515.512 515.512 515.512s515.512-230.95 515.512-515.512zM515.512 202.189c-52.581 0-95.885-42.271-95.885-94.854 0-53.612 43.302-95.885 95.885-95.885s95.885 42.271 95.885 95.885c0 52.581-43.302 94.854-95.885 94.854zM424.783 546.551l15.465-283.533c1.031-12.372 11.341-22.682 24.744-22.682h101.040c13.403 0 23.713 10.31 24.744 22.682l15.465 283.533c1.031 14.434-10.31 25.775-24.744 25.775h-131.972c-14.434 0-25.775-11.341-24.744-25.775z" />
<glyph unicode="&#xe80e;" glyph-name="profile" d="M180.43-209.192h-107.227c18.558 206.205 209.298 368.076 442.311 368.076h12.372c226.826-5.155 411.38-165.995 429.938-368.076h-107.227c-17.527 152.592-160.84 272.192-335.084 272.192s-317.557-119.599-335.084-272.192zM515.512 821.836c162.902 0 294.874-131.972 294.874-294.874 0-161.871-131.972-293.843-294.874-293.843s-294.874 131.972-294.874 293.843c0 162.902 131.972 294.874 294.874 294.874zM515.512 717.701c-105.164 0-190.74-85.574-190.74-190.74s85.574-190.74 190.74-190.74 190.74 85.574 190.74 190.74c0 105.164-85.574 190.74-190.74 190.74z" />
<glyph unicode="&#xe80f;" glyph-name="count-line" d="M482.52-161.765l-284.564 222.701c-18.558 13.403-18.558 37.116 0 50.519 17.527 14.434 47.426 14.434 64.953 0l252.601-196.926 252.601 196.926c17.527 14.434 47.426 14.434 64.953 0 18.558-14.434 18.558-37.116 0-50.519l-284.564-222.701c-9.279-7.217-20.62-10.31-32.992-10.31-11.341 0-23.713 3.093-32.992 10.31zM548.508 774.407l284.564-221.67c18.558-14.434 18.558-37.116 0-51.55-17.527-14.434-47.426-14.434-64.953 0l-252.601 196.926-252.601-196.926c-17.527-14.434-47.426-14.434-64.953 0-18.558 14.434-18.558 37.116 0 51.55l284.564 221.67c9.279 7.217 21.651 10.31 32.992 10.31 12.372 0 23.713-3.093 32.992-10.31z" />
<glyph unicode="&#xe811;" glyph-name="paging-line-right" d="M576.345 277.453l-278.378-253.632c-17.527-16.496-46.395-16.496-63.922 0s-17.527 42.271 0 58.767l246.415 223.732-246.415 223.732c-17.527 16.496-17.527 42.271 0 58.767s46.395 16.496 63.922 0l278.378-253.632c8.248-7.217 12.372-18.558 12.372-28.868s-4.124-20.62-12.372-28.868zM870.187 277.453l-277.347-253.632c-17.527-16.496-46.395-16.496-63.922 0s-17.527 42.271 0 58.767l245.384 223.732-245.384 223.732c-17.527 16.496-17.527 42.271 0 58.767s46.395 16.496 63.922 0l277.347-253.632c9.279-7.217 13.403-18.558 13.403-28.868s-4.124-20.62-13.403-28.868z" />
<glyph unicode="&#xe812;" glyph-name="calendar-1" d="M0-122.586v760.898q0 36.085 24.744 61.86t61.86 24.744h139.189v64.953q0 13.403 9.279 22.682t22.682 9.279 22.682-9.279 9.279-22.682v-64.953h193.833v64.953q0 13.403 9.279 22.682t22.682 9.279 22.682-9.279 9.279-22.682v-64.953h193.833v64.953q0 13.403 9.279 22.682t22.682 9.279 22.682-9.279 9.279-22.682v-64.953h139.189q36.085 0 61.86-24.744t24.744-61.86v-760.898q0-36.085-24.744-61.86t-61.86-24.744h-857.815q-36.085 0-61.86 24.744t-24.744 61.86zM64.953-122.586q0-10.31 5.155-16.496t16.496-6.186h857.815q10.31 0 16.496 6.186t5.155 16.496v760.898q0 10.31-5.155 16.496t-16.496 6.186h-139.189v-64.953q0-13.403-9.279-22.682t-22.682-9.279-22.682 9.279-9.279 22.682v64.953h-193.833v-64.953q0-13.403-9.279-22.682t-22.682-9.279-22.682 9.279-9.279 22.682v64.953h-193.833v-64.953q0-13.403-9.279-22.682t-22.682-9.279-22.682 9.279-9.279 22.682v64.953h-139.189q-10.31 0-16.496-6.186t-5.155-16.496v-760.898zM225.795 16.602v96.916h128.878v-96.916h-128.878zM225.795 177.445v96.916h128.878v-96.916h-128.878zM225.795 338.284v96.916h128.878v-96.916h-128.878zM451.59 16.602v96.916h128.878v-96.916h-128.878zM451.59 177.445v96.916h128.878v-96.916h-128.878zM451.59 338.284v96.916h128.878v-96.916h-128.878zM676.355 16.602v96.916h128.878v-96.916h-128.878zM676.355 177.445v96.916h128.878v-96.916h-128.878zM676.355 338.284v96.916h128.878v-96.916h-128.878z" />
<glyph unicode="&#xe813;" glyph-name="paging-line-left" d="M541.291 277.453l277.347-253.632c17.527-16.496 46.395-16.496 63.922 0s17.527 42.271 0 58.767l-245.384 223.732 245.384 223.732c17.527 16.496 17.527 42.271 0 58.767s-46.395 16.496-63.922 0l-277.347-253.632c-9.279-7.217-13.403-18.558-13.403-28.868s4.124-20.62 13.403-28.868zM246.415 277.453l277.347-253.632c18.558-16.496 46.395-16.496 64.953 0 17.527 16.496 17.527 42.271 0 58.767l-246.415 223.732 245.384 223.732c18.558 16.496 18.558 42.271 0 58.767-17.527 16.496-45.364 16.496-63.922 0l-277.347-253.632c-9.279-7.217-13.403-18.558-13.403-28.868s4.124-20.62 13.403-28.868z" />
<glyph unicode="&#xe814;" glyph-name="ic-close" horiz-adv-x="1124" d="M677.386 306.322l343.332 357.766c31.961 32.992 31.961 86.605 0 119.599s-82.481 32.992-114.444 0l-343.332-357.766-344.363 357.766c-31.961 32.992-82.481 32.992-114.444 0s-31.961-86.605 0-119.599l343.332-357.766-343.332-357.766c-31.961-32.992-31.961-86.605 0-119.599s82.481-32.992 114.444 0l344.363 357.766 343.332-357.766c31.961-32.992 82.481-32.992 114.444 0s31.961 86.605 0 119.599l-343.332 357.766z" />
<glyph unicode="&#xe815;" glyph-name="notification" horiz-adv-x="946" d="M412.411-37.010c0-48.457 35.054-86.605 79.388-86.605h1.031c43.302 0 79.388 38.147 79.388 86.605h57.736c0-83.512-60.829-150.53-137.127-150.53h-1.031c-76.295 0-137.127 67.015-137.127 150.53zM472.21 821.836c61.86 0 112.382-51.55 116.506-116.506v-26.806c106.196-47.426 182.492-158.778 187.647-288.688v-193.833l85.574-141.251c5.155-9.279 6.186-22.682 1.031-31.961s-13.403-15.465-22.682-16.496l-4.124-1.031h-726.874c-11.341 0-21.651 7.217-26.806 17.527-4.124 8.248-5.155 18.558-1.031 27.837l2.062 4.124 85.574 141.251v181.461c0 136.096 77.326 252.601 187.647 301.060v19.589c0 68.046 51.55 123.723 115.475 123.723zM472.21 639.345c-130.94 0-238.167-112.382-243.322-251.57v-201.050c0-4.124-1.031-9.279-2.062-13.403l-2.062-4.124-60.829-100.009h617.586l-60.829 100.009c-2.062 4.124-4.124 8.248-4.124 13.403v194.864c0 144.344-109.289 261.88-244.353 261.88zM472.21 757.91c-28.868 0-52.581-23.713-55.674-53.612v-6.186c18.558 4.124 37.116 5.155 55.674 5.155 19.589 0 38.147-2.062 56.705-5.155 0 32.992-25.775 59.798-56.705 59.798z" />
<glyph unicode="&#xe817;" glyph-name="cog" horiz-adv-x="966" d="M0 308.384q0 39.178 7.217 85.574 51.55-4.124 97.947 19.589t72.17 70.108 23.713 97.947-30.93 93.823q65.984 57.736 154.654 88.668 23.713-42.271 65.984-68.046t92.792-24.744 91.761 24.744 65.984 68.046q87.636-30.93 154.654-88.668-21.651-40.209-21.651-87.636t23.713-88.668q24.744-42.271 67.015-65.984t89.699-23.713q11.341-50.519 11.341-101.040 0-32.992-7.217-76.295-46.395-1.031-86.605-25.775t-64.953-64.953q-25.775-45.364-23.713-94.854t26.806-91.761q-68.046-61.86-149.499-95.885-23.713 43.302-65.984 69.077t-92.792 25.775q-54.643 0-98.978-28.868t-65.984-76.295q-84.543 26.806-157.747 84.543 28.868 42.271 30.93 93.823t-23.713 97.947q-27.837 47.426-76.295 72.17t-101.040 17.527q-9.279 42.271-9.279 93.823zM302.091 308.384q0-75.263 52.581-127.847t128.878-52.581 127.847 52.581 52.581 127.847-52.581 127.847-127.847 53.612-128.878-53.612-52.581-127.847z" />
<glyph unicode="&#xe818;" glyph-name="menu" d="M824.822 269.205c32.992 0 58.767-26.806 58.767-59.798v-212.391c0-31.961-25.775-58.767-58.767-58.767h-212.391c-32.992 0-58.767 26.806-58.767 58.767v212.391c0 32.992 25.775 59.798 58.767 59.798h212.391zM418.597 269.205c32.992 0 59.798-26.806 59.798-59.798v-212.391c0-31.961-26.806-58.767-59.798-58.767h-212.391c-31.961 0-58.767 26.806-58.767 58.767v212.391c0 32.992 26.806 59.798 58.767 59.798h212.391zM418.597 213.53h-212.391c-2.062 0-4.124-2.062-4.124-4.124v-212.391c0-2.062 2.062-4.124 4.124-4.124h212.391c2.062 0 4.124 2.062 4.124 4.124v212.391c0 2.062-2.062 4.124-4.124 4.124zM824.822 213.53h-212.391c-2.062 0-4.124-2.062-4.124-4.124v-212.391c0-2.062 2.062-4.124 4.124-4.124h212.391c2.062 0 4.124 2.062 4.124 4.124v212.391c0 2.062-2.062 4.124-4.124 4.124zM418.597 674.399c32.992 0 59.798-25.775 59.798-58.767v-212.391c0-32.992-26.806-59.798-59.798-59.798h-212.391c-31.961 0-58.767 26.806-58.767 59.798v212.391c0 32.992 26.806 58.767 58.767 58.767h212.391zM824.822 674.399c32.992 0 58.767-25.775 58.767-58.767v-212.391c0-32.992-25.775-59.798-58.767-59.798h-212.391c-32.992 0-58.767 26.806-58.767 59.798v212.391c0 32.992 25.775 58.767 58.767 58.767h212.391zM418.597 619.755h-212.391c-2.062 0-4.124-2.062-4.124-4.124v-212.391c0-2.062 2.062-4.124 4.124-4.124h212.391c2.062 0 4.124 2.062 4.124 4.124v212.391c0 2.062-2.062 4.124-4.124 4.124zM824.822 619.755h-212.391c-2.062 0-4.124-2.062-4.124-4.124v-212.391c0-2.062 2.062-4.124 4.124-4.124h212.391c2.062 0 4.124 2.062 4.124 4.124v212.391c0 2.062-2.062 4.124-4.124 4.124z" />
<glyph unicode="&#xe81a;" glyph-name="alert" d="M515.512 821.836c-284.564 0-515.512-230.95-515.512-514.481 0-284.564 230.95-515.512 515.512-515.512 283.533 0 514.481 230.95 514.481 515.512s-230.95 514.481-514.481 514.481zM515.512-140.114c-247.446 0-447.466 200.019-447.466 447.466 0 246.415 200.019 446.435 447.466 446.435 246.415 0 446.435-200.019 446.435-446.435 0-247.446-200.019-447.466-446.435-447.466zM515.512-12.266c-40.209 0-73.201 32.992-73.201 73.201s32.992 73.201 73.201 73.201 73.201-32.992 73.201-73.201c0-40.209-32.992-73.201-73.201-73.201zM588.717 246.522c0-35.054-32.992-62.891-73.201-62.891s-73.201 27.837-73.201 62.891v315.494c0 35.054 32.992 63.922 73.201 63.922s73.201-28.868 73.201-63.922v-315.494z" />
<glyph unicode="&#xe81b;" glyph-name="info" d="M515.512 821.836c-284.564 0-515.512-230.95-515.512-514.481 0-284.564 230.95-515.512 515.512-515.512 283.533 0 514.481 230.95 514.481 515.512s-230.95 514.481-514.481 514.481zM515.512-140.114c-247.446 0-447.466 200.019-447.466 447.466 0 246.415 200.019 446.435 447.466 446.435 246.415 0 446.435-200.019 446.435-446.435 0-247.446-200.019-447.466-446.435-447.466zM529.95 47.534c-23.713-4.124-72.17-14.434-96.916-16.496-21.651-1.031-41.24 10.31-52.581 27.837-12.372 17.527-15.465 39.178-8.248 58.767l96.916 268.068h-101.040c0 55.674 42.271 95.885 95.885 112.382 24.744 7.217 72.17 17.527 96.916 15.465 15.465-1.031 41.24-10.31 52.581-26.806 12.372-17.527 15.465-39.178 8.248-58.767l-96.916-268.068h101.040c0-55.674-40.209-103.102-95.885-112.382zM560.88 545.52c-35.054 0-63.922 28.868-63.922 64.953 0 35.054 28.868 63.922 63.922 63.922 36.085 0 64.953-28.868 64.953-63.922 0-36.085-28.868-64.953-64.953-64.953z" />
<glyph unicode="&#xe81c;" glyph-name="setting-intigration" d="M910.397 457.883c63.922 0 116.506-50.519 120.63-114.444v-552.632h-485.613v472.21l282.502 162.902c22.682 20.62 52.581 31.961 82.481 31.961zM159.809 85.682v-110.32h282.502v-74.232h-282.502v-110.32l-159.809 147.437 159.809 147.437zM910.397 397.052c-31.961 0-60.829-25.775-60.829-60.829 0-30.93 24.744-56.705 54.643-59.798h6.186v-60.829h-304.153v-363.952h363.952v484.582c0 34.023-26.806 60.829-59.798 60.829zM364.983 821.836c63.922 0 116.506-50.519 120.63-113.413v-552.632h-485.613v472.21l282.502 161.871c22.682 20.62 52.581 31.961 82.481 31.961zM364.983 761.003c-31.961 0-60.829-25.775-60.829-59.798 0-31.961 23.713-57.736 54.643-59.798l6.186-1.031v-59.798h-304.153v-364.983h363.952v485.613c0 32.992-26.806 59.798-59.798 59.798zM789.767 333.129l-100.009-56.705h115.475c-9.279 16.496-15.465 36.085-15.465 56.705zM871.218 821.836l159.809-147.437-159.809-147.437v110.32h-282.502v74.232h282.502v110.32zM243.322 698.112l-100.009-57.736h116.506c-9.279 17.527-15.465 37.116-16.496 57.736z" />
<glyph unicode="&#xe820;" glyph-name="setting-business" d="M995.974 680.585h-234.043v36.085c0 57.736-47.426 105.164-105.164 105.164h-282.502c-57.736 0-105.164-47.426-105.164-105.164v-36.085h-234.043c-19.589 0-35.054-15.465-35.054-35.054v-688.727c0-58.767 47.426-106.196 106.196-106.196h819.667c57.736 0 105.164 47.426 105.164 106.196v687.696c-1.031 23.713-15.465 36.085-35.054 36.085zM339.208 716.67c0 18.558 16.496 35.054 35.054 35.054h282.502c19.589 0 35.054-16.496 35.054-35.054v-36.085h-352.611v36.085zM946.483 610.476l-109.289-327.867c-4.124-14.434-17.527-24.744-32.992-24.744h-112.382v35.054c0 19.589-15.465 36.085-35.054 36.085h-282.502c-19.589 0-35.054-16.496-35.054-36.085v-35.054h-112.382c-15.465 0-28.868 10.31-32.992 24.744l-109.289 327.867h861.939zM621.71 257.864v-70.108h-211.36v70.108h211.36zM960.918-43.196c0-19.589-16.496-36.085-35.054-36.085h-819.667c-19.589 0-36.085 16.496-36.085 36.085v472.21l56.705-169.088c14.434-43.302 54.643-72.17 100.009-72.17h112.382v-35.054c0-19.589 15.465-36.085 35.054-36.085h282.502c19.589 0 35.054 16.496 35.054 36.085v35.054h112.382c45.364 0 85.574 28.868 100.009 72.17l56.705 169.088v-472.21z" />
<glyph unicode="&#xe821;" glyph-name="plus" d="M938.235 390.866h-338.177v338.177c0 46.395-38.147 84.543-84.543 84.543s-84.543-38.147-84.543-84.543v-338.177h-338.177c-46.395 0-84.543-38.147-84.543-84.543s38.147-84.543 84.543-84.543h338.177v-338.177c0-46.395 38.147-84.543 84.543-84.543s84.543 38.147 84.543 84.543v338.177h338.177c47.426 0 84.543 38.147 84.543 84.543s-37.116 84.543-84.543 84.543z" />
<glyph unicode="&#xe822;" glyph-name="setting-company" d="M534.074 748.631v-100.009h56.705v-138.158h319.619v-269.099c67.015-15.465 117.537-76.295 117.537-148.468s-50.519-131.972-117.537-148.468v-60.829h115.475v-70.108h-1025.873v835.133h56.705v100.009h477.365zM463.962 678.523h-337.146v-98.978h-56.705v-695.944h450.559v695.944h-56.705v98.978zM840.288 441.387h-249.508v-557.787h249.508v61.86c-67.015 15.465-116.506 76.295-116.506 147.437 0 72.17 49.488 131.972 116.506 148.468v200.019zM875.342 175.383c-45.364 0-82.481-37.116-82.481-82.481s37.116-82.481 82.481-82.481c45.364 0 82.481 37.116 82.481 82.481s-37.116 82.481-82.481 82.481zM243.322 113.519v-98.978h-70.108v98.978h70.108zM416.535 113.519v-98.978h-69.077v98.978h69.077zM243.322 311.477v-98.978h-70.108v98.978h70.108zM416.535 311.477v-98.978h-69.077v98.978h69.077zM243.322 510.466v-100.009h-70.108v100.009h70.108zM416.535 510.466v-100.009h-69.077v100.009h69.077z" />
<glyph unicode="&#xe823;" glyph-name="ic-trash-line" horiz-adv-x="818" d="M633.051-70.003h-429.938v537.167h429.938v-537.167zM552.632 789.873h-269.099l-53.612-53.612h-187.647v-107.227h751.619v107.227h-187.647l-53.612 53.612zM740.278 574.389h-644.392v-644.392c0-58.767 48.457-107.227 107.227-107.227h429.938c58.767 0 107.227 48.457 107.227 107.227v644.392z" />
<glyph unicode="&#xe824;" glyph-name="ic-edit-line" horiz-adv-x="860" d="M832.040-86.499v-90.73h-771.208v90.73h771.208zM532.012 789.873l235.074-235.074-516.543-517.574h-235.074v236.105l516.543 516.543zM532.012 662.027l-426.845-426.845v-107.227h108.258l426.845 426.845-108.258 107.227z" />
<glyph unicode="&#xe825;" glyph-name="refresh" d="M876.373 667.182c-89.699 96.916-218.577 154.654-360.859 154.654-283.533 0-515.512-231.981-515.512-515.512s231.981-515.512 515.512-515.512c238.167 0 438.186 168.057 495.923 386.635h-135.065c-51.55-148.468-192.802-257.756-360.859-257.756-212.391 0-386.635 174.243-386.635 386.635s174.243 386.635 386.635 386.635c109.289 0 200.019-45.364 271.161-115.475l-206.205-206.205h450.559v450.559l-154.654-154.654z" />
<glyph unicode="&#xe826;" glyph-name="edit" d="M585.624 635.221l256.725-256.725-557.787-557.787-228.888-25.775c-30.93-3.093-56.705 22.682-53.612 53.612l25.775 228.888 557.787 557.787zM1001.129 673.368l-120.63 120.63c-38.147 37.116-98.978 37.116-136.096 0l-113.413-113.413 256.725-256.725 113.413 113.413c37.116 37.116 37.116 97.947 0 136.096z" />
<glyph unicode="&#xe827;" glyph-name="setting-recycle" d="M619.648 821.836c65.984 0 120.63-54.643 120.63-120.63v-46.395h243.322c22.682 0 40.209-18.558 40.209-40.209 0-22.682-17.527-40.209-40.209-40.209h-41.24l-35.054-452.621c-2.062-20.62-19.589-37.116-40.209-37.116-1.031 0-2.062 0-3.093 0-21.651 2.062-39.178 21.651-37.116 43.302l34.023 446.435h-624.803l48.457-629.958c4.124-42.271 39.178-73.201 80.419-73.201h368.076c41.24 0 76.295 30.93 79.388 72.17 2.062 22.682 21.651 38.147 44.333 37.116 21.651-2.062 38.147-21.651 36.085-44.333-7.217-82.481-76.295-145.375-159.809-145.375h-368.076c-40.209 0-78.357 14.434-108.258 42.271-29.899 26.806-48.457 63.922-51.55 104.133v1.031l-49.488 636.144h-41.24c-22.682 0-41.24 17.527-41.24 40.209s18.558 40.209 41.24 40.209h243.322v46.395c0 65.984 53.612 120.63 120.63 120.63zM366.014 419.735c21.651 1.031 41.24-10.31 42.271-25.775l19.589-313.432c1.031-15.465-16.496-27.837-38.147-28.868h-2.062c-21.651 0-39.178 11.341-40.209 26.806l-19.589 313.432c-1.031 14.434 15.465 27.837 38.147 27.837zM732.029 419.735c21.651 0 39.178-13.403 38.147-27.837l-19.589-313.432c-1.031-15.465-19.589-26.806-40.209-26.806h-2.062c-22.682 1.031-39.178 13.403-38.147 28.868l19.589 313.432c1.031 15.465 19.589 26.806 42.271 25.775zM548.508 419.735c22.682 0 40.209-12.372 40.209-26.806v-313.432c0-15.465-17.527-27.837-40.209-27.837-21.651 0-40.209 12.372-40.209 27.837v313.432c0 14.434 18.558 26.806 40.209 26.806zM619.648 741.414h-141.251c-21.651 0-40.209-18.558-40.209-40.209v-46.395h221.67v46.395c0 21.651-18.558 40.209-40.209 40.209z" />
<glyph unicode="&#xe829;" glyph-name="logout" d="M1031.028 701.205v-789.767c0-65.984-59.798-120.63-131.972-120.63h-608.306c-73.201 0-131.972 54.643-131.972 120.63v160.84h87.636v-160.84c0-21.651 20.62-40.209 44.333-40.209h608.306c23.713 0 43.302 18.558 43.302 40.209v789.767c0 21.651-19.589 40.209-43.302 40.209h-608.306c-23.713 0-44.333-18.558-44.333-40.209v-160.84h-87.636v160.84c0 65.984 58.767 120.63 131.972 120.63h608.306c72.17 0 131.972-54.643 131.972-120.63zM432 167.134l57.736-58.767 190.74 197.957-190.74 197.957-57.736-58.767 92.792-96.916h-524.791v-84.543h524.791l-92.792-96.916z" />
<glyph unicode="&#xe82c;" glyph-name="camnera" d="M626.865 748.631c35.054 0 67.015-20.62 82.481-51.55l1.031-1.031 40.209-86.605c2.062-4.124 7.217-6.186 11.341-6.186h148.468c65.984 0 120.63-54.643 120.63-120.63v-544.384c0-65.984-54.643-120.63-120.63-120.63h-789.767c-65.984 0-120.63 54.643-120.63 120.63v544.384c0 65.984 54.643 120.63 120.63 120.63h151.561c4.124 0 8.248 2.062 10.31 6.186l41.24 86.605 1.031 1.031c15.465 30.93 47.426 51.55 82.481 51.55zM626.865 667.182h-219.608c-4.124 0-8.248-2.062-10.31-6.186l-41.24-86.605h-1.031c-15.465-31.961-47.426-51.55-82.481-51.55h-151.561c-21.651 0-40.209-18.558-40.209-40.209v-544.384c0-21.651 18.558-40.209 40.209-40.209h789.767c21.651 0 40.209 18.558 40.209 40.209v544.384c0 21.651-18.558 40.209-40.209 40.209h-148.468c-35.054 0-67.015 19.589-83.512 51.55v0l-41.24 86.605c-2.062 4.124-6.186 6.186-10.31 6.186zM515.512 482.628c139.189 0 251.57-113.413 251.57-251.57 0-139.189-112.382-251.57-251.57-251.57s-251.57 112.382-251.57 251.57 112.382 251.57 251.57 251.57zM515.512 402.207c-94.854 0-171.15-77.326-171.15-171.15s76.295-171.15 171.15-171.15 171.15 76.295 171.15 171.15-76.295 171.15-171.15 171.15zM870.187 442.418v-80.419h-80.419v80.419h80.419z" />
<glyph unicode="&#xe82d;" glyph-name="view" d="M515.512 601.196c123.723 0 244.353-56.705 358.797-150.53 39.178-32.992 74.232-67.015 105.164-101.040 14.434-15.465 24.744-27.837 32.992-37.116l7.217-10.31c15.465-19.589 15.465-46.395 0-64.953-5.155-7.217-13.403-17.527-24.744-30.93l-15.465-16.496c-30.93-34.023-65.984-69.077-105.164-101.040-114.444-93.823-235.074-150.53-358.797-150.53s-244.353 56.705-358.797 150.53c-38.147 31.961-74.232 67.015-105.164 101.040-14.434 14.434-24.744 27.837-32.992 37.116l-7.217 10.31c-14.434 18.558-15.465 45.364-1.031 64.953 6.186 7.217 14.434 17.527 25.775 29.899l14.434 17.527c30.93 34.023 65.984 68.046 105.164 101.040 113.413 93.823 235.074 150.53 359.828 150.53v0zM285.595 417.672l-12.372-8.248c-18.558-12.372-37.116-26.806-55.674-41.24-35.054-28.868-67.015-59.798-94.854-90.73l-6.186-7.217 6.186-8.248c22.682-24.744 48.457-49.488 75.263-73.201l20.62-17.527c97.947-80.419 198.988-128.878 296.936-128.878s198.988 48.457 296.936 128.878c35.054 28.868 67.015 59.798 95.885 90.73l6.186 7.217-6.186 7.217c-22.682 25.775-48.457 50.519-75.263 74.232l-20.62 17.527c-21.651 17.527-44.333 34.023-65.984 48.457 6.186-22.682 9.279-47.426 9.279-73.201 0-142.282-107.227-257.756-240.229-257.756s-240.229 115.475-240.229 257.756c0 25.775 3.093 50.519 10.31 74.232zM515.512 496.031c-9.279 0-18.558 0-27.837-1.031-65.984-13.403-116.506-76.295-116.506-151.561 0-85.574 64.953-154.654 144.344-154.654s144.344 69.077 144.344 154.654c0 75.263-50.519 137.127-116.506 151.561-9.279 1.031-18.558 1.031-27.837 1.031z" />
<glyph unicode="&#xe82e;" glyph-name="lead" d="M291.781-86.499h-71.139c12.372 137.127 139.189 245.384 294.874 245.384h10.31c150.53-5.155 272.192-111.351 284.564-245.384h-71.139c-12.372 102.071-107.227 181.461-223.732 181.461-115.475 0-211.36-79.388-223.732-181.461zM515.512 601.196c108.258 0 196.926-88.668 196.926-196.926s-88.668-195.895-196.926-195.895-195.895 87.636-195.895 195.895c0 108.258 87.636 196.926 195.895 196.926zM515.512 532.117c-70.108 0-126.816-57.736-126.816-127.847s56.705-126.816 126.816-126.816c70.108 0 126.816 56.705 126.816 126.816s-56.705 127.847-126.816 127.847zM515.512 821.836c284.564 0 515.512-230.95 515.512-515.512s-230.95-515.512-515.512-515.512-515.512 230.95-515.512 515.512 230.95 515.512 515.512 515.512zM515.512 748.631c-244.353 0-442.311-197.957-442.311-442.311s197.957-442.311 442.311-442.311c244.353 0 442.311 197.957 442.311 442.311s-197.957 442.311-442.311 442.311z" />
<glyph unicode="&#xe82f;" glyph-name="add-task" d="M920.707 601.196c57.736 0 104.133-44.333 110.32-100.009v-157.747c0-57.736-43.302-105.164-100.009-110.32h-746.464c-57.736 0-105.164 43.302-110.32 98.978l-1.031 11.341v10.31c0 20.62 16.496 37.116 37.116 37.116 18.558 0 32.992-13.403 36.085-29.899l1.031-7.217v-10.31c0-18.558 13.403-32.992 29.899-36.085l7.217-1.031h736.153c17.527 0 32.992 13.403 36.085 29.899l1.031 7.217v147.437c0 17.527-13.403 32.992-30.93 36.085h-406.225c-20.62 0-36.085 16.496-36.085 37.116 0 18.558 12.372 32.992 29.899 36.085l6.186 1.031h400.039zM54.643 654.81h112.382v112.382c0 29.899 23.713 54.643 53.612 54.643s54.643-24.744 54.643-54.643v-112.382h112.382c29.899 0 54.643-23.713 54.643-53.612s-24.744-54.643-54.643-54.643h-112.382v-112.382c0-29.899-24.744-54.643-54.643-54.643s-53.612 24.744-53.612 54.643v112.382h-112.382c-29.899 0-54.643 24.744-54.643 54.643s24.744 53.612 54.643 53.612zM928.956 158.885h-752.65c-56.705 0-103.102-41.24-103.102-91.761v-184.554c0-50.519 46.395-91.761 103.102-91.761h752.65c56.705 0 102.071 41.24 102.071 91.761v184.554c0 50.519-45.364 91.761-102.071 91.761zM181.461 85.682h742.34c18.558 0 34.023-12.372 34.023-27.837v-165.995c0-15.465-15.465-27.837-34.023-27.837h-742.34c-18.558 0-34.023 12.372-34.023 27.837v165.995c0 15.465 15.465 27.837 34.023 27.837z" />
<glyph unicode="&#xe830;" glyph-name="create" d="M780.487 821.836c61.86 0 112.382-47.426 117.537-107.227v-230.95h-87.636v220.639c0 14.434-10.31 25.775-23.713 28.868h-669.137c-13.403 0-25.775-9.279-28.868-23.713v-815.543c0-14.434 10.31-25.775 23.713-28.868l5.155-1.031h368.076v-87.636h-368.076c-60.829 0-111.351 46.395-116.506 107.227l-1.031 10.31v810.388c0 60.829 47.426 111.351 107.227 117.537h673.261zM700.068 453.759c29.899 0 54.643-24.744 54.643-55.674v-220.639h220.639c30.93 0 55.674-24.744 55.674-55.674s-24.744-54.643-55.674-54.643h-220.639v-220.639c0-30.93-24.744-55.674-54.643-55.674s-55.674 24.744-55.674 55.674v220.639h-220.639c-30.93 0-55.674 24.744-55.674 54.643s24.744 55.674 55.674 55.674h220.639v220.639c0 30.93 24.744 55.674 55.674 55.674z" />
<glyph unicode="&#xe831;" glyph-name="smile" d="M349.898 356.84c39.686 0 70.868 32.126 70.868 70.868s-31.181 70.868-70.868 70.868-70.868-31.181-70.868-70.868 32.126-70.868 70.868-70.868zM680.622 356.84c39.686 0 70.868 32.126 70.868 70.868s-31.181 70.868-70.868 70.868-70.868-31.181-70.868-70.868 32.126-70.868 70.868-70.868zM515.258 120.609c-69.923 0-129.455 38.741-162.528 94.491h-79.372c37.796-96.381 132.29-165.362 241.902-165.362s204.103 68.978 241.902 165.362h-79.372c-32.126-55.749-92.601-94.491-162.528-94.491zM515.258 782.058c-260.8 0-472.461-211.663-472.461-472.461s211.663-472.461 472.461-472.461c260.8 0 472.461 211.663 472.461 472.461s-211.663 472.461-472.461 472.461zM515.258-68.377c-208.828 0-377.97 169.142-377.97 377.97s169.142 377.97 377.97 377.97 377.97-169.142 377.97-377.97-169.142-377.97-377.97-377.97z" />
<glyph unicode="&#xe832;" glyph-name="search" d="M123.723 109.395c-162.902 162.902-162.902 427.876 0 590.779s427.876 162.902 590.779 0c138.158-138.158 158.778-344.363 62.891-504.171 0 0-7.217-11.341 2.062-20.62l213.422-213.422c42.271-42.271 52.581-102.071 14.434-139.189l-6.186-7.217c-37.116-37.116-96.916-26.806-139.189 15.465l-212.391 212.391c-10.31 10.31-21.651 3.093-21.651 3.093-159.809-95.885-366.014-75.263-504.171 62.891zM637.175 186.724c120.63 119.599 120.63 315.494 0 436.124-119.599 119.599-315.494 119.599-436.124 0-120.63-120.63-120.63-316.526 0-436.124s316.526-120.63 436.124 0z" />
<glyph unicode="&#xe833;" glyph-name="move-user" d="M478.396 803.277c173.212 0 313.432-140.22 313.432-312.401s-140.22-313.432-313.432-313.432c-12.372 0-24.744 1.031-36.085 2.062v-2.062c-181.461 0-329.929-137.127-348.487-313.432h-110.32c13.403 178.368 128.878 327.867 288.688 391.79-64.953 56.705-106.196 141.251-106.196 235.074 0 172.181 140.22 312.401 312.401 312.401zM478.396 692.957c-111.351 0-202.081-90.73-202.081-202.081s90.73-203.112 202.081-203.112 203.112 90.73 203.112 203.112-90.73 202.081-203.112 202.081zM787.704 91.868h-314.463v-114.444h314.463v-171.15l227.857 228.888-227.857 228.888z" />
<glyph unicode="&#xe834;" glyph-name="sale" d="M846.474 279.515v-5.155c0-22.682 0-22.682 24.744-26.806 19.589-3.093 38.147-8.248 55.674-15.465 10.31-3.093 14.434-10.31 11.341-18.558-4.124-14.434-8.248-27.837-13.403-42.271-5.155-13.403-9.279-15.465-23.713-9.279-27.837 12.372-56.705 17.527-87.636 15.465-8.248 0-16.496-1.031-23.713-4.124-26.806-10.31-30.93-37.116-9.279-53.612 11.341-8.248 24.744-14.434 38.147-19.589 23.713-9.279 47.426-17.527 70.108-28.868 71.139-35.054 90.73-116.506 40.209-172.181-18.558-19.589-42.271-32.992-70.108-40.209-12.372-3.093-16.496-8.248-16.496-19.589s0-21.651 0-32.992c0-9.279-6.186-15.465-16.496-15.465-11.341 1.031-24.744 1.031-38.147 1.031-11.341 0-16.496 6.186-16.496 16.496v24.744c0 17.527-1.031 18.558-20.62 20.62-24.744 4.124-48.457 9.279-71.139 18.558-17.527 8.248-19.589 11.341-14.434 28.868 4.124 12.372 7.217 23.713 11.341 36.085 5.155 14.434 9.279 16.496 23.713 9.279 24.744-11.341 51.55-17.527 78.357-21.651 18.558-1.031 35.054 0 51.55 6.186 30.93 12.372 36.085 44.333 9.279 63.922-8.248 6.186-18.558 11.341-28.868 15.465-26.806 10.31-55.674 18.558-80.419 31.961-41.24 21.651-68.046 53.612-64.953 97.947 4.124 50.519 35.054 82.481 87.636 100.009 19.589 6.186 21.651 6.186 21.651 21.651v25.775c1.031 16.496 4.124 18.558 20.62 18.558h15.465c34.023 0 36.085 0 36.085-26.806zM883.591 821.836c31.961 0 61.86-12.372 84.543-35.054 23.713-22.682 36.085-53.612 36.085-85.574v-149.499c0-21.651-18.558-40.209-40.209-40.209h-120.63v-90.73c0-21.651-18.558-40.209-41.24-40.209-21.651 0-40.209 18.558-40.209 40.209v280.44c0 14.434 3.093 27.837 7.217 40.209h-648.516c-21.651 0-40.209-18.558-40.209-40.209v-829.978h458.807c21.651 0 40.209-17.527 40.209-40.209s-18.558-40.209-40.209-40.209h-499.016c-21.651 0-40.209 17.527-40.209 40.209v870.187c0 65.984 54.643 120.63 120.63 120.63h762.96zM553.663 299.105c22.682 0 40.209-17.527 40.209-40.209 0-20.62-14.434-37.116-34.023-39.178l-6.186-1.031h-278.378c-22.682 0-40.209 18.558-40.209 40.209 0 20.62 14.434 37.116 34.023 40.209h284.564zM553.663 526.962c22.682 0 40.209-17.527 40.209-40.209 0-20.62-14.434-37.116-34.023-39.178l-6.186-1.031h-278.378c-22.682 0-40.209 18.558-40.209 40.209 0 20.62 14.434 37.116 34.023 40.209h284.564zM883.591 741.414c-22.682 0-40.209-18.558-40.209-40.209v-109.289h80.419v109.289c0 10.31-4.124 20.62-12.372 27.837-7.217 8.248-17.527 12.372-27.837 12.372z" />
<glyph unicode="&#xe835;" glyph-name="product" d="M976.385 589.855l-429.938 228.888c-8.248 4.124-18.558 4.124-26.806 0l-429.938-228.888c-9.279-5.155-15.465-15.465-15.465-25.775v-515.512c0-10.31 6.186-20.62 15.465-24.744l429.938-229.919c4.124-2.062 8.248-3.093 13.403-3.093 4.124 0 9.279 1.031 13.403 3.093l429.938 229.919c9.279 4.124 14.434 14.434 14.434 24.744v515.512c0 10.31-5.155 20.62-14.434 25.775zM533.043 761.003l368.076-196.926-153.623-82.481-369.107 196.926 154.654 82.481zM504.171-132.897l-372.2 198.988v450.559l372.2-198.988v-450.559zM533.043 367.152l-369.107 196.926 153.623 82.481 369.107-196.926-153.623-82.481zM934.111 66.092l-373.231-198.988v450.559l373.231 198.988v-450.559z" />
<glyph unicode="&#xe836;" glyph-name="report" d="M0 370.245c0-1.031 1.031-3.093 1.031-4.124 0-2.062 0-4.124 1.031-7.217 1.031-2.062 2.062-3.093 3.093-5.155s2.062-4.124 4.124-6.186c1.031-1.031 3.093-2.062 4.124-4.124 2.062-1.031 4.124-2.062 5.155-3.093 3.093-1.031 5.155-2.062 7.217-3.093 1.031 0 2.062-1.031 4.124-1.031 1.031 0 2.062 0 2.062 0 1.031 0 2.062 0 3.093 0h514.481v-515.512c0-1.031 1.031-2.062 1.031-2.062 0-1.031 0-2.062 0-3.093s1.031-2.062 1.031-4.124c1.031-2.062 1.031-4.124 2.062-6.186s3.093-4.124 4.124-5.155c1.031-2.062 3.093-4.124 4.124-5.155 2.062-2.062 3.093-3.093 5.155-4.124s4.124-2.062 6.186-3.093c2.062 0 4.124-1.031 7.217-1.031 1.031 0 2.062-1.031 4.124-1.031 1.031 0 2.062 1.031 2.062 1.031 1.031 0 2.062-1.031 3.093 0 254.663 35.054 446.435 256.725 446.435 514.481 0 286.626-234.043 520.667-520.667 520.667-257.756 0-479.427-191.771-515.512-446.435 0-1.031 1.031-2.062 0-2.062 0-1.031 0-2.062 0-3.093zM515.512 752.755c248.477 0 450.559-203.112 450.559-451.59 0-209.298-146.406-389.728-346.425-437.155v506.233c0 19.589-15.465 35.054-35.054 35.054h-506.233c47.426 200.019 227.857 347.456 437.155 347.456zM411.38 233.119c16.496 0 30.93-14.434 30.93-30.93v-381.48c0-16.496-14.434-29.899-30.93-29.899-115.475 0-219.608 47.426-294.874 124.754l-2.062 2.062c-1.031 1.031-2.062 2.062-2.062 3.093-70.108 73.201-112.382 173.212-112.382 281.471 0 16.496 13.403 30.93 29.899 30.93zM381.48-41.134l-91.761-85.574c28.868-10.31 59.798-17.527 91.761-20.62v106.196zM381.48 133.108l-201.050-193.833c15.465-14.434 32.992-26.806 50.519-38.147l150.53 140.22v91.761zM334.053 172.29h-82.481l-147.437-138.158c9.279-18.558 20.62-35.054 34.023-51.55l195.895 189.709zM162.902 172.29h-101.040c3.093-27.837 8.248-54.643 16.496-79.388l84.543 79.388z" />
<glyph unicode="&#xe837;" glyph-name="arrow-down" d="M796.985 524.9l-281.471-281.471-281.471 281.471-86.605-86.605 368.076-369.107 368.076 369.107z" />
<glyph unicode="&#xe838;" glyph-name="icn-file-export" d="M515.512 379.525l220.639-211.36-65.984-62.891-108.258 103.102v-417.566h-92.792v417.566l-108.258-103.102-65.984 62.891 220.639 211.36zM651.609 821.836c9.279 0 17.527-3.093 23.713-9.279h2.062l1.031-1.031 269.099-255.694c4.124-4.124 6.186-9.279 8.248-14.434 0-1.031 1.031-2.062 1.031-4.124v-2.062l1.031-2.062v-540.26c0-68.046-54.643-122.692-123.723-127.847l-11.341-1.031h-57.736v63.922h57.736c34.023 0 62.891 24.744 67.015 56.705v516.543h-135.065c-70.108 0-127.847 51.55-133.003 116.506v140.22h-413.442c-34.023 0-62.891-24.744-67.015-55.674v-709.347c0-32.992 25.775-59.798 58.767-63.922l8.248-1.031h18.558v-63.922h-18.558c-70.108 0-128.878 52.581-134.034 117.537l-1.031 11.341v701.099c0 67.015 54.643 121.661 123.723 127.847h454.683zM688.727 710.484v-82.481c0-31.961 24.744-58.767 57.736-61.86l8.248-1.031h87.636l-153.623 145.375z" />
<glyph unicode="&#xe839;" glyph-name="icn-file-import" d="M561.911 379.525v-416.535l108.258 103.102 65.984-63.922-220.639-211.36-220.639 211.36 65.984 63.922 108.258-103.102v416.535h92.792zM651.609 821.836c9.279 0 17.527-3.093 23.713-9.279h2.062l1.031-1.031 269.099-255.694c4.124-4.124 6.186-9.279 8.248-14.434 0-1.031 1.031-2.062 1.031-4.124v-2.062l1.031-2.062v-540.26c0-68.046-54.643-122.692-123.723-127.847l-11.341-1.031h-57.736v63.922h57.736c34.023 0 62.891 24.744 67.015 56.705v516.543h-135.065c-70.108 0-127.847 51.55-133.003 116.506v140.22h-413.442c-34.023 0-62.891-24.744-67.015-55.674v-709.347c0-32.992 25.775-59.798 58.767-63.922l8.248-1.031h18.558v-63.922h-18.558c-70.108 0-128.878 52.581-134.034 117.537l-1.031 11.341v701.099c0 67.015 54.643 121.661 123.723 127.847h454.683zM688.727 710.484v-82.481c0-31.961 24.744-58.767 57.736-61.86l8.248-1.031h87.636l-153.623 145.375z" />
<glyph unicode="&#xe83a;" glyph-name="icn-filled-active" d="M515.512 821.836c283.533 0 514.481-230.95 514.481-515.512 0-283.533-230.95-514.481-514.481-514.481-284.564 0-515.512 230.95-515.512 514.481 0 284.564 230.95 515.512 515.512 515.512zM759.867 518.714c-11.341 11.341-29.899 11.341-41.24 0l-276.316-278.378-128.878 129.909c-12.372 11.341-30.93 11.341-42.271 0l-41.24-41.24c-11.341-12.372-11.341-30.93 0-42.271l190.74-192.802c12.372-11.341 30.93-11.341 42.271 0l338.177 341.27c12.372 11.341 12.372 29.899 0 41.24z" />
<glyph unicode="&#xe83b;" glyph-name="icn-filled-calendar" d="M663.982 732.135v-128.878c0-57.736 47.426-104.133 105.164-104.133h65.984c57.736 0 104.133 46.395 104.133 104.133v128.878c50.519-2.062 91.761-43.302 91.761-94.854v-750.588c0-52.581-42.271-95.885-94.854-95.885h-841.319c-52.581 0-94.854 43.302-94.854 95.885v750.588c0 51.55 41.24 92.792 91.761 94.854v-128.878c0-57.736 46.395-104.133 104.133-104.133h65.984c57.736 0 105.164 46.395 105.164 104.133v128.878h296.936zM868.125 361.997h-706.254c-22.682 0-41.24-18.558-41.24-41.24v-387.666c0-22.682 18.558-41.24 41.24-41.24h706.254c22.682 0 40.209 18.558 40.209 41.24v387.666c0 22.682-17.527 41.24-40.209 41.24zM334.053 59.906c13.403 0 24.744-11.341 24.744-24.744v-85.574c0-13.403-11.341-24.744-24.744-24.744h-85.574c-13.403 0-24.744 11.341-24.744 24.744v85.574c0 13.403 11.341 24.744 24.744 24.744zM558.818 59.906c13.403 0 23.713-11.341 23.713-24.744v-85.574c0-13.403-10.31-24.744-23.713-24.744h-85.574c-14.434 0-24.744 11.341-24.744 24.744v85.574c0 13.403 10.31 24.744 24.744 24.744zM782.549 59.906c13.403 0 24.744-11.341 24.744-24.744v-85.574c0-13.403-11.341-24.744-24.744-24.744h-85.574c-13.403 0-24.744 11.341-24.744 24.744v85.574c0 13.403 11.341 24.744 24.744 24.744zM334.053 283.639c13.403 0 24.744-10.31 24.744-24.744v-84.543c0-14.434-11.341-24.744-24.744-24.744h-85.574c-13.403 0-24.744 10.31-24.744 24.744v85.574c0 13.403 11.341 23.713 24.744 23.713zM558.818 283.639c13.403 0 23.713-10.31 23.713-24.744v-84.543c0-14.434-10.31-24.744-23.713-24.744h-85.574c-14.434 0-24.744 10.31-24.744 24.744v85.574c0 13.403 10.31 23.713 24.744 23.713zM782.549 283.639c13.403 0 24.744-10.31 24.744-24.744v-84.543c0-14.434-11.341-24.744-24.744-24.744h-85.574c-13.403 0-24.744 10.31-24.744 24.744v85.574c0 13.403 11.341 23.713 24.744 23.713zM278.378 821.836c19.589 0 35.054-15.465 35.054-34.023v-201.050c0-18.558-15.465-34.023-35.054-34.023h-63.922c-19.589 0-35.054 15.465-35.054 34.023v201.050c0 18.558 15.465 34.023 35.054 34.023zM816.574 821.836c19.589 0 35.054-15.465 35.054-34.023v-201.050c0-18.558-15.465-34.023-35.054-34.023h-63.922c-19.589 0-35.054 15.465-35.054 34.023v201.050c0 18.558 15.465 34.023 35.054 34.023z" />
<glyph unicode="&#xe83c;" glyph-name="icn-filled-call" d="M843.381 167.134c-36.085 36.085-81.45 36.085-117.537 0-27.837-26.806-54.643-54.643-81.45-82.481-8.248-7.217-14.434-8.248-22.682-4.124-18.558 10.31-37.116 17.527-53.612 28.868-80.419 49.488-146.406 114.444-206.205 186.616-28.868 36.085-55.674 74.232-73.201 118.568-4.124 8.248-3.093 14.434 4.124 21.651 26.806 25.775 53.612 53.612 81.45 80.419 37.116 38.147 37.116 82.481-1.031 120.63-20.62 21.651-42.271 42.271-63.922 64.953-22.682 21.651-44.333 44.333-67.015 65.984-36.085 35.054-81.45 35.054-116.506 0-27.837-27.837-54.643-55.674-82.481-82.481-26.806-24.744-39.178-54.643-42.271-89.699-4.124-57.736 9.279-112.382 29.899-164.964 40.209-109.289 102.071-206.205 177.337-295.905 101.040-120.63 221.67-215.484 362.921-284.564 63.922-30.93 129.909-54.643 202.081-58.767 49.488-2.062 92.792 10.31 126.816 48.457 23.713 26.806 49.488 50.519 75.263 75.263 36.085 38.147 37.116 83.512 0 119.599-43.302 44.333-87.636 88.668-131.972 131.972z" />
<glyph unicode="&#xe83d;" glyph-name="icn-filled-fail" d="M552.632-209.192c-60.829 0-110.32 49.488-110.32 110.32s49.488 110.32 110.32 110.32 110.32-49.488 110.32-110.32-49.488-110.32-110.32-110.32zM662.951 190.848c0-58.767-49.488-105.164-110.32-105.164s-110.32 47.426-110.32 105.164v525.822c0 57.736 49.488 105.164 110.32 105.164s110.32-47.426 110.32-105.164v-525.822z" />
<glyph unicode="&#xe83f;" glyph-name="icn-filled-heart" d="M931.018 682.647c-110.32 100.009-274.254 81.45-375.293-28.868l-40.209-43.302-39.178 43.302c-101.040 110.32-266.006 128.878-376.325 28.868-126.816-114.444-133.003-319.619-19.589-444.373l389.728-426.845c24.744-27.837 65.984-27.837 90.73 0l389.728 426.845c113.413 124.754 107.227 329.929-19.589 444.373z" />
<glyph unicode="&#xe840;" glyph-name="icn-filled-line" d="M1026.904 432.108v3.093l-1.031 9.279-1.031 7.217v2.062h-1.031c-12.372 71.139-47.426 139.189-100.009 196.926-53.612 57.736-122.692 103.102-200.019 130.94-67.015 24.744-137.127 37.116-209.298 37.116-97.947 0-193.833-22.682-275.285-67.015-158.778-83.512-251.57-238.167-238.167-392.821 7.217-80.419 39.178-156.716 91.761-221.67 48.457-59.798 115.475-108.258 191.771-140.22 47.426-19.589 93.823-28.868 143.313-39.178l6.186-1.031c13.403-3.093 17.527-6.186 18.558-8.248s0-7.217 0-10.31l-2.062-8.248c-5.155-21.651-11.341-44.333-6.186-69.077 4.124-27.837 22.682-44.333 48.457-44.333 27.837 0 59.798 18.558 80.419 30.93l3.093 2.062c49.488 28.868 96.916 61.86 133.003 87.636 77.326 56.705 164.964 119.599 231.981 202.081 65.984 82.481 96.916 189.709 85.574 292.812zM320.65 275.391h-88.668c-13.403 0-24.744 10.31-24.744 23.713v186.616c0 13.403 11.341 23.713 24.744 23.713s23.713-10.31 23.713-23.713v-161.871h64.953c13.403 0 24.744-11.341 24.744-24.744s-11.341-23.713-24.744-23.713zM413.442 300.136c0-13.403-11.341-24.744-24.744-24.744s-23.713 11.341-23.713 24.744v185.585c0 14.434 10.31 24.744 23.713 24.744s24.744-10.31 24.744-24.744v-185.585zM633.051 300.136c0-10.31-7.217-20.62-16.496-23.713-3.093 0-5.155-1.031-8.248-1.031-7.217 0-14.434 4.124-19.589 10.31l-87.636 120.63v-106.196c0-13.403-10.31-24.744-23.713-24.744s-24.744 11.341-24.744 24.744v180.43c0 11.341 7.217 20.62 16.496 23.713 10.31 3.093 21.651-1.031 27.837-9.279l87.636-120.63v112.382c0 13.403 10.31 23.713 23.713 23.713s24.744-10.31 24.744-23.713v-186.616zM810.388 279.515h-120.63c-13.403 0-24.744 10.31-24.744 23.713v186.616c0 13.403 11.341 24.744 24.744 24.744h116.506c13.403 0 24.744-11.341 24.744-24.744s-11.341-23.713-24.744-23.713h-91.761v-45.364h74.232c13.403 0 24.744-10.31 24.744-23.713s-11.341-24.744-24.744-24.744h-74.232v-44.333h95.885c13.403 0 23.713-11.341 23.713-24.744s-10.31-23.713-23.713-23.713z" />
<glyph unicode="&#xe842;" glyph-name="icn-filled-mail-read" d="M354.673 386.742h321.681c18.558 0 32.992 14.434 32.992 31.961v32.992c0 17.527-14.434 31.961-32.992 31.961h-321.681c-17.527 0-31.961-14.434-31.961-31.961v-32.992c0-17.527 14.434-31.961 31.961-31.961zM322.712 225.902c0-17.527 14.434-31.961 31.961-31.961h321.681c18.558 0 32.992 14.434 32.992 31.961v31.961c0 17.527-14.434 31.961-32.992 31.961h-321.681c-17.527 0-31.961-14.434-31.961-31.961v-31.961zM515.512-18.452c-32.992 0-65.984 10.31-93.823 30.93l-421.69 304.153v-428.907c0-53.612 43.302-96.916 96.916-96.916h837.195c53.612 0 96.916 43.302 96.916 96.916v428.907l-420.659-304.153c-28.868-20.62-61.86-30.93-94.854-30.93zM993.912 493.969c-17.527 13.403-35.054 26.806-59.798 45.364v89.699c0 52.581-43.302 95.885-95.885 95.885h-156.716l-18.558 13.403c-32.992 24.744-101.040 84.543-147.437 83.512-46.395 1.031-113.413-58.767-147.437-83.512l-18.558-13.403h-155.685c-53.612 0-96.916-43.302-96.916-95.885v-89.699c-24.744-18.558-42.271-31.961-59.798-45.364-23.713-18.558-37.116-46.395-37.116-76.295v-21.651l193.833-139.189v371.169h644.392v-371.169l192.802 139.189v21.651c0 29.899-13.403 57.736-37.116 76.295z" />
<glyph unicode="&#xe843;" glyph-name="icn-filled-menu" d="M509.326 72.278c77.326 0 140.22-62.891 140.22-141.251s-62.891-140.22-140.22-140.22-141.251 62.891-141.251 140.22c0 78.357 62.891 141.251 141.251 141.251zM509.326 446.542c77.326 0 140.22-62.891 140.22-140.22s-62.891-140.22-140.22-140.22-141.251 62.891-141.251 140.22c0 77.326 62.891 140.22 141.251 140.22zM509.326 821.836c77.326 0 140.22-62.891 140.22-140.22 0-78.357-62.891-141.251-140.22-141.251s-141.251 62.891-141.251 141.251 62.891 140.22 141.251 140.22z" />
<glyph unicode="&#xe844;" glyph-name="icn-filled-refresh" d="M876.373 667.182c-89.699 96.916-218.577 154.654-360.859 154.654-283.533 0-515.512-231.981-515.512-515.512s231.981-515.512 515.512-515.512c238.167 0 438.186 168.057 495.923 386.635h-135.065c-51.55-148.468-192.802-257.756-360.859-257.756-212.391 0-386.635 174.243-386.635 386.635s174.243 386.635 386.635 386.635c109.289 0 200.019-45.364 271.161-115.475l-206.205-206.205h450.559v450.559l-154.654-154.654z" />
<glyph unicode="&#xe845;" glyph-name="icn-filled-close-solid" d="M568.097 306.322l157.747 157.747c14.434 14.434 14.434 38.147 0 52.581s-38.147 14.434-52.581 0l-157.747-157.747-157.747 157.747c-14.434 14.434-38.147 14.434-52.581 0s-14.434-38.147 0-52.581l157.747-157.747-157.747-157.747c-14.434-14.434-14.434-38.147 0-52.581s38.147-14.434 52.581 0l157.747 157.747 157.747-157.747c14.434-14.434 38.147-14.434 52.581 0s14.434 38.147 0 52.581l-157.747 157.747z" />
<glyph unicode="&#xe846;" glyph-name="icn-filled-conference" d="M122.692 480.566c61.86 0 111.351-49.488 111.351-111.351v-192.802h97.947c49.488 0 90.73-40.209 90.73-90.73v-259.818c0-16.496-13.403-29.899-29.899-29.899h-117.537c-16.496 0-29.899 13.403-29.899 29.899v174.243h-126.816c-58.767 0-107.227 48.457-107.227 107.227v261.88c0 61.86 50.519 111.351 111.351 111.351zM908.335 480.566c61.86 0 111.351-49.488 111.351-111.351v-261.88c0-58.767-48.457-107.227-107.227-107.227h-126.816v-174.243c0-16.496-13.403-29.899-29.899-29.899h-116.506c-17.527 0-30.93 13.403-30.93 29.899v259.818c0 50.519 41.24 90.73 91.761 90.73h96.916v192.802c0 61.86 50.519 111.351 111.351 111.351zM609.337 540.365h4.124l34.023-10.31c44.333-15.465 74.232-55.674 74.232-102.071v-156.716c0-10.31-7.217-17.527-17.527-17.527h-377.356c-10.31 0-17.527 7.217-17.527 17.527v156.716c0 46.395 29.899 86.605 74.232 102.071l34.023 10.31c1.031 0 2.062 0 4.124 0 5.155 0 9.279-3.093 11.341-8.248l82.481-225.795 82.481 225.795c2.062 6.186 9.279 10.31 15.465 8.248zM530.981 541.396c4.124 0 7.217-2.062 10.31-4.124 4.124-5.155 5.155-11.341 2.062-16.496l-16.496-24.744 8.248-63.922-15.465-39.178c-1.031-4.124-7.217-4.124-8.248 0l-14.434 39.178 7.217 63.922-16.496 24.744c-3.093 5.155-2.062 11.341 2.062 16.496 3.093 2.062 6.186 4.124 10.31 4.124zM122.692 758.941c68.046 0 122.692-54.643 122.692-122.692 0-67.015-54.643-122.692-122.692-122.692s-122.692 55.674-122.692 122.692c0 68.046 54.643 122.692 122.692 122.692zM908.335 758.941c68.046 0 122.692-54.643 122.692-122.692 0-67.015-54.643-122.692-122.692-122.692s-122.692 54.643-122.692 122.692c0 68.046 54.643 122.692 122.692 122.692zM515.512 821.836c68.046 0 122.692-54.643 122.692-122.692s-54.643-122.692-122.692-122.692c-68.046 0-122.692 54.643-122.692 122.692s54.643 122.692 122.692 122.692z" />
<glyph unicode="&#xe847;" glyph-name="icn-filled-delete" d="M925.863 748.631h-237.136l-18.558 42.271c-7.217 19.589-23.713 30.93-42.271 30.93h-224.763c-18.558 0-35.054-11.341-42.271-30.93l-18.558-42.271h-237.136c-17.527 0-31.961-16.496-31.961-37.116v-74.232c0-19.589 14.434-36.085 31.961-36.085h820.698c17.527 0 31.961 16.496 31.961 36.085v74.232c0 20.62-14.434 37.116-31.961 37.116zM182.492-122.586c3.093-48.457 44.333-86.605 93.823-86.605h478.396c49.488 0 90.73 38.147 93.823 86.605l41.24 649.547h-748.526l41.24-649.547z" />
<glyph unicode="&#xe848;" glyph-name="icn-filled-excel" d="M577.376 552.737v269.099h-383.542c-25.775 0-46.395-20.62-46.395-47.426v-917.614c0-26.806 20.62-47.426 46.395-47.426h644.392c24.744 0 45.364 20.62 45.364 47.426v648.516h-260.849c-24.744 0-45.364 21.651-45.364 47.426zM691.82 342.408l-114.444-185.585 114.444-184.554c10.31-16.496-1.031-37.116-18.558-37.116h-67.015c-9.279 0-16.496 5.155-20.62 12.372-38.147 72.17-70.108 136.096-70.108 136.096-12.372-28.868-19.589-39.178-70.108-136.096-4.124-7.217-11.341-12.372-20.62-12.372h-65.984c-18.558 0-29.899 20.62-19.589 37.116l115.475 184.554-115.475 185.585c-10.31 15.465 1.031 36.085 19.589 36.085h65.984c8.248 0 16.496-5.155 20.62-12.372 50.519-96.916 38.147-67.015 70.108-136.096 0 0 11.341 23.713 70.108 136.096 4.124 7.217 12.372 12.372 20.62 12.372h67.015c17.527 0 28.868-20.62 18.558-36.085zM883.591 580.575v-12.372h-245.384v253.632h11.341c12.372 0 24.744-5.155 32.992-13.403l187.647-193.833c9.279-9.279 13.403-21.651 13.403-34.023z" />
<glyph unicode="&#xe849;" glyph-name="icn-filled-facebook" d="M240.229 272.298h112.382v-464.993c0-9.279 8.248-16.496 16.496-16.496h191.771c9.279 0 16.496 7.217 16.496 16.496v462.931h129.909c9.279 0 16.496 6.186 16.496 15.465l20.62 171.15c0 4.124-1.031 9.279-4.124 12.372-3.093 4.124-8.248 6.186-12.372 6.186h-150.53v107.227c0 31.961 17.527 48.457 52.581 48.457h97.947c9.279 0 16.496 7.217 16.496 16.496v157.747c0 9.279-7.217 16.496-16.496 16.496h-141.251c-23.713 0-105.164-4.124-169.088-63.922-71.139-64.953-61.86-143.313-58.767-157.747v-124.754h-118.568c-9.279 0-16.496-7.217-16.496-16.496v-169.088c0-9.279 7.217-17.527 16.496-17.527z" />
<glyph unicode="&#xe84a;" glyph-name="icn-filled-user" d="M515.512 306.322c139.189 0 252.601 115.475 252.601 257.756s-113.413 257.756-252.601 257.756-252.601-115.475-252.601-257.756 113.413-257.756 252.601-257.756zM691.82 242.398h-31.961c-44.333-20.62-92.792-32.992-144.344-32.992s-100.009 12.372-143.313 32.992h-32.992c-146.406 0-266.006-121.661-266.006-271.161v-83.512c0-53.612 43.302-96.916 94.854-96.916h694.913c51.55 0 94.854 43.302 94.854 96.916v83.512c0 149.499-119.599 271.161-266.006 271.161z" />
<glyph unicode="&#xe84b;" glyph-name="icn-filled-time" d="M515.512 821.836c-284.564 0-515.512-230.95-515.512-515.512s230.95-515.512 515.512-515.512 515.512 230.95 515.512 515.512-230.95 515.512-515.512 515.512zM634.082 93.93l-183.523 133.003c-6.186 5.155-10.31 12.372-10.31 20.62v349.518c0 14.434 11.341 25.775 25.775 25.775h98.978c14.434 0 25.775-11.341 25.775-25.775v-285.595l131.972-96.916c10.31-7.217 13.403-23.713 5.155-34.023l-58.767-81.45c-8.248-10.31-23.713-13.403-35.054-5.155z" />
<glyph unicode="&#xe84c;" glyph-name="icn-filled-training" d="M839.257 207.344c70.108 0 126.816-57.736 126.816-127.847 0-34.023-13.403-65.984-36.085-88.668 59.798-32.992 101.040-96.916 101.040-170.119 0-16.496-13.403-29.899-29.899-29.899h-971.229c-16.496 0-29.899 13.403-29.899 29.899 0 73.201 41.24 137.127 102.071 170.119-23.713 22.682-37.116 54.643-37.116 88.668 0 70.108 56.705 127.847 126.816 127.847s127.847-57.736 127.847-127.847c0-34.023-14.434-65.984-37.116-88.668 28.868-16.496 53.612-39.178 71.139-67.015 17.527 27.837 42.271 50.519 71.139 67.015-22.682 22.682-36.085 54.643-36.085 88.668 0 70.108 56.705 127.847 126.816 127.847s126.816-57.736 126.816-127.847c0-34.023-13.403-65.984-36.085-88.668 28.868-16.496 53.612-39.178 71.139-67.015 17.527 27.837 42.271 50.519 71.139 67.015-22.682 22.682-37.116 54.643-37.116 88.668 0 70.108 57.736 127.847 127.847 127.847zM774.301 405.3c16.496 0 29.899-13.403 29.899-29.899s-13.403-29.899-29.899-29.899h-67.015v-131.972c-11.341-11.341-21.651-24.744-29.899-38.147-32.992 54.643-92.792 91.761-161.871 91.761s-128.878-37.116-161.871-91.761c-8.248 13.403-18.558 26.806-29.899 38.147v131.972h-67.015c-16.496 0-29.899 13.403-29.899 29.899s13.403 29.899 29.899 29.899zM515.512 821.836c70.108 0 126.816-56.705 126.816-126.816 0-35.054-13.403-67.015-36.085-89.699 51.55-27.837 89.699-79.388 98.978-139.189h-379.418c9.279 59.798 47.426 111.351 98.978 139.189-22.682 22.682-36.085 54.643-36.085 89.699 0 70.108 56.705 126.816 126.816 126.816z" />
<glyph unicode="&#xe84e;" glyph-name="icn-outline-convert" d="M305.184 228.995l-70.108 77.326-235.074-257.756 235.074-257.756 70.108 77.326-114.444 125.785h545.415v109.289h-545.415zM725.843 310.446l70.108-77.326 235.074 257.756-235.074 257.756-70.108-77.326 114.444-125.785h-545.415v-109.289h545.415z" />
<glyph unicode="&#xe84f;" glyph-name="icn-outline-login" d="M935.142 92.899c22.682 0 40.209 17.527 40.209 40.209v149.499c0 88.668-72.17 160.84-160.84 160.84h-48.457v142.282c0 129.909-108.258 236.105-241.26 236.105s-241.26-106.196-241.26-236.105v-142.282h-48.457c-89.699 0-161.871-72.17-161.871-160.84v-330.96c0-88.668 73.201-160.84 161.871-160.84h579.438c88.668 0 160.84 72.17 160.84 160.84 0 22.682-17.527 40.209-40.209 40.209-21.651 0-40.209-17.527-40.209-40.209 0-44.333-36.085-80.419-80.419-80.419h-579.438c-44.333 0-80.419 36.085-80.419 80.419v330.96c0 44.333 36.085 80.419 80.419 80.419h579.438c44.333 0 80.419-36.085 80.419-80.419v-149.499c0-22.682 18.558-40.209 40.209-40.209zM685.634 443.449h-321.681v142.282c0 85.574 72.17 155.685 160.84 155.685s160.84-70.108 160.84-155.685v-142.282z" />
<glyph unicode="&#xe850;" glyph-name="left-open" horiz-adv-x="738" d="M674.292 648.624l-306.215-305.184 306.215-306.215q10.31-10.31 10.31-25.775t-10.31-25.775l-95.885-95.885q-11.341-10.31-25.775-10.31t-25.775 10.31l-426.845 427.876q-11.341 10.31-11.341 25.775t11.341 25.775l426.845 426.845q10.31 11.341 25.775 11.341t25.775-11.341l95.885-95.885q10.31-10.31 10.31-25.775t-10.31-25.775z" />
<glyph unicode="&#xe851;" glyph-name="icon-arrow-up" d="M796.985 56.813l-281.471 281.471-281.471-281.471-86.605 86.605 368.076 368.076 368.076-368.076z" />
<glyph unicode="&#xe852;" glyph-name="icon-deinvite-user" d="M828.947 233.119c71.139 0 128.878-57.736 128.878-128.878v-37.116h26.806c5.155 0 9.279-4.124 9.279-9.279v-229.919c0-20.62-16.496-37.116-36.085-37.116h-257.756c-20.62 0-37.116 16.496-37.116 37.116v229.919c0 5.155 4.124 9.279 9.279 9.279h27.837v37.116c0 71.139 57.736 128.878 128.878 128.878zM828.947-7.111c-20.62 0-37.116-16.496-37.116-36.085 0-12.372 5.155-22.682 15.465-29.899l-6.186-52.581c0-2.062 0-5.155 2.062-7.217s4.124-3.093 7.217-3.093h36.085c3.093 0 5.155 1.031 7.217 3.093s3.093 5.155 2.062 7.217l-5.155 52.581c9.279 7.217 14.434 17.527 14.434 29.899 0 19.589-16.496 36.085-36.085 36.085zM828.947 177.445c-41.24 0-74.232-32.992-74.232-73.201v-37.116h147.437v37.116c0 40.209-32.992 73.201-73.201 73.201zM478.396 803.277c173.212 0 313.432-140.22 313.432-312.401s-140.22-313.432-313.432-313.432c-12.372 0-24.744 1.031-36.085 2.062v-2.062c-181.461 0-329.929-137.127-348.487-313.432h-110.32c13.403 178.368 128.878 327.867 288.688 391.79-64.953 56.705-106.196 141.251-106.196 235.074 0 172.181 140.22 312.401 312.401 312.401zM478.396 692.957c-111.351 0-202.081-90.73-202.081-202.081s90.73-203.112 202.081-203.112 203.112 90.73 203.112 203.112-90.73 202.081-203.112 202.081z" />
<glyph unicode="&#xe855;" glyph-name="icn-navigation-back" d="M515.512 821.836c-284.564 0-515.512-230.95-515.512-515.512 0-283.533 230.95-514.481 515.512-514.481 283.533 0 514.481 230.95 514.481 514.481 0 284.564-230.95 515.512-514.481 515.512zM515.512-140.114c-247.446 0-447.466 200.019-447.466 446.435 0 247.446 200.019 447.466 447.466 447.466 246.415 0 446.435-200.019 446.435-446.435 0-247.446-200.019-447.466-446.435-447.466zM651.609 480.566l-168.057-169.088 168.057-169.088-51.55-51.55-220.639 220.639 220.639 220.639z" />
<glyph unicode="&#xe856;" glyph-name="icn-outline-active" d="M515.512 821.836c-284.564 0-515.512-230.95-515.512-515.512 0-283.533 230.95-514.481 515.512-514.481 283.533 0 514.481 230.95 514.481 514.481 0 284.564-230.95 515.512-514.481 515.512zM515.512-140.114c-247.446 0-447.466 200.019-447.466 446.435 0 247.446 200.019 447.466 447.466 447.466 246.415 0 446.435-200.019 446.435-446.435 0-247.446-200.019-447.466-446.435-447.466zM444.373 92.899l-143.313 159.809c-8.248 10.31-8.248 25.775 0 35.054l30.93 35.054c9.279 9.279 22.682 9.279 31.961 0l95.885-108.258 207.236 231.981c9.279 9.279 22.682 9.279 31.961 0l30.93-35.054c8.248-9.279 8.248-24.744 0-35.054l-253.632-283.533c-9.279-10.31-22.682-10.31-31.961 0z" />
<glyph unicode="&#xe857;" glyph-name="filter" d="M363.952-163.827v504.171l-352.611 409.318c-19.589 22.682-17.527 70.108 31.961 70.108h941.328c45.364 0 55.674-42.271 31.961-70.108l-344.363-397.977v-312.401c0-12.372-4.124-23.713-15.465-31.961l-220.639-203.112c-24.744-19.589-72.17-9.279-72.17 31.961zM137.127 734.197l302.091-348.487c6.186-8.248 10.31-17.527 10.31-27.837v-425.814l137.127 124.754v309.308c0 11.341 4.124 19.589 10.31 27.837l292.812 340.239h-752.65z" />
<glyph unicode="&#xe858;" glyph-name="chat" d="M885.653 821.836h-724.812c-88.668 0-160.84-72.17-160.84-160.84v-483.551c0-88.668 72.17-160.84 160.84-160.84v-202.081c0-15.465 9.279-29.899 23.713-36.085 5.155-2.062 11.341-4.124 16.496-4.124 9.279 0 19.589 4.124 26.806 10.31l270.13 231.981h387.666c89.699 0 161.871 72.17 161.871 160.84v483.551c0 88.668-72.17 160.84-161.871 160.84zM967.105 177.445c0-44.333-37.116-80.419-81.45-80.419h-402.101c-10.31 0-19.589-3.093-26.806-10.31l-215.484-184.554v154.654c0 21.651-17.527 40.209-40.209 40.209h-40.209c-44.333 0-80.419 36.085-80.419 80.419v483.551c0 44.333 36.085 80.419 80.419 80.419h724.812c44.333 0 81.45-36.085 81.45-80.419v-483.551zM604.182 345.501c22.682 0 40.209-18.558 40.209-40.209 0-22.682-17.527-40.209-40.209-40.209h-322.712c-21.651 0-40.209 17.527-40.209 40.209 0 21.651 18.558 40.209 40.209 40.209zM765.022 580.575c22.682 0 40.209-18.558 40.209-40.209 0-22.682-17.527-40.209-40.209-40.209h-483.551c-21.651 0-40.209 17.527-40.209 40.209 0 21.651 18.558 40.209 40.209 40.209z" />
<glyph unicode="&#xe859;" glyph-name="switcher" horiz-adv-x="1082" d="M257.756 48.565c14.434 0 25.775-11.341 25.775-25.775v-206.205c0-14.434-11.341-25.775-25.775-25.775h-202.081c-13.403 0-24.744 11.341-24.744 25.775v206.205c0 14.434 11.341 25.775 24.744 25.775zM636.144 48.565c14.434 0 25.775-11.341 25.775-25.775v-206.205c0-14.434-11.341-25.775-25.775-25.775h-202.081c-13.403 0-24.744 11.341-24.744 25.775v206.205c0 14.434 11.341 25.775 24.744 25.775zM1014.532 48.565c14.434 0 25.775-11.341 25.775-25.775v-206.205c0-14.434-11.341-25.775-25.775-25.775h-202.081c-13.403 0-24.744 11.341-24.744 25.775v206.205c0 14.434 11.341 25.775 24.744 25.775zM257.756 435.201c14.434 0 25.775-11.341 25.775-25.775v-206.205c0-14.434-11.341-25.775-25.775-25.775h-202.081c-13.403 0-24.744 11.341-24.744 25.775v206.205c0 14.434 11.341 25.775 24.744 25.775zM636.144 435.201c14.434 0 25.775-11.341 25.775-25.775v-206.205c0-14.434-11.341-25.775-25.775-25.775h-202.081c-13.403 0-24.744 11.341-24.744 25.775v206.205c0 14.434 11.341 25.775 24.744 25.775zM1014.532 435.201c14.434 0 25.775-11.341 25.775-25.775v-206.205c0-14.434-11.341-25.775-25.775-25.775h-202.081c-13.403 0-24.744 11.341-24.744 25.775v206.205c0 14.434 11.341 25.775 24.744 25.775zM257.756 821.836c14.434 0 25.775-11.341 25.775-25.775v-206.205c0-14.434-11.341-25.775-25.775-25.775h-202.081c-13.403 0-24.744 11.341-24.744 25.775v206.205c0 14.434 11.341 25.775 24.744 25.775zM636.144 821.836c14.434 0 25.775-11.341 25.775-25.775v-206.205c0-14.434-11.341-25.775-25.775-25.775h-202.081c-13.403 0-24.744 11.341-24.744 25.775v206.205c0 14.434 11.341 25.775 24.744 25.775zM1014.532 821.836c14.434 0 25.775-11.341 25.775-25.775v-206.205c0-14.434-11.341-25.775-25.775-25.775h-202.081c-13.403 0-24.744 11.341-24.744 25.775v206.205c0 14.434 11.341 25.775 24.744 25.775z" />
<glyph unicode="&#xe85a;" glyph-name="product-1" d="M985.664 555.83v2.062c-1.031 2.062-1.031 4.124-2.062 6.186v1.031c-1.031 2.062-3.093 4.124-4.124 5.155l-1.031 1.031c-1.031 1.031-3.093 2.062-4.124 3.093l-1.031 1.031h-1.031l-1.031 1.031-449.528 219.608c-8.248 4.124-18.558 4.124-28.868 0l-150.53-74.232 450.559-226.826 1.031-1.031c2.062 0 2.062-1.031 3.093-1.031 1.031-1.031 1.031-2.062 2.062-3.093v-244.353c0-4.124-2.062-7.217-6.186-10.31l-90.73-46.395c-5.155-3.093-11.341-1.031-14.434 4.124-1.031 1.031-1.031 3.093-1.031 5.155v236.105l-456.745 231.981-1.031 1.031-182.492-89.699-1.031-1.031h-1.031l-1.031-1.031c-1.031-1.031-3.093-2.062-4.124-3.093l-1.031-1.031c-2.062-2.062-3.093-4.124-5.155-6.186v-1.031c-2.062-2.062-3.093-4.124-3.093-6.186v-2.062c0-2.062-1.031-3.093-1.031-5.155v-485.613c0-11.341 7.217-22.682 18.558-27.837l444.373-218.577c7.217-3.093 14.434-4.124 21.651-2.062l2.062 1.031c2.062 0 3.093 1.031 5.155 2.062l448.497 218.577c10.31 5.155 17.527 15.465 17.527 27.837v484.582c-1.031 2.062-1.031 3.093-1.031 5.155z" />
<glyph unicode="&#xe85c;" glyph-name="right-open" horiz-adv-x="738" d="M637.175 317.663l-426.845-427.876q-11.341-10.31-25.775-10.31t-25.775 10.31l-95.885 95.885q-11.341 11.341-11.341 25.775t11.341 25.775l305.184 306.215-305.184 305.184q-11.341 11.341-11.341 25.775t11.341 25.775l95.885 95.885q10.31 11.341 25.775 11.341t25.775-11.341l426.845-426.845q10.31-11.341 10.31-25.775t-10.31-25.775z" />
<glyph unicode="&#xe85e;" glyph-name="broadcast" d="M651.609 777.5c50.519 0 91.761-41.24 91.761-90.73v-20.62h197.957v-387.666h-194.864v-352.611c0-49.488-41.24-90.73-92.792-90.73h-381.48c-51.55 0-92.792 41.24-92.792 90.73v760.898c0 49.488 41.24 90.73 92.792 90.73zM689.758 56.813h-453.652v-130.94c0-19.589 15.465-35.054 36.085-35.054h381.48c19.589 0 36.085 15.465 36.085 35.054v130.94zM492.83 14.54v-44.333h-89.699v44.333h89.699zM433.031 610.476h-196.926v-497.985h453.652v165.995h-105.164l-103.102-82.481h-48.457v414.473zM884.622 610.476h-394.883v-336.115l74.232 59.798h320.65v276.316zM651.609 721.825h-379.418c-20.62 0-36.085-15.465-36.085-35.054v-20.62h451.59v20.62c0 19.589-16.496 35.054-36.085 35.054zM583.562 416.641c13.403 0 24.744 3.093 32.992 9.279s12.372 13.403 12.372 23.713c0 6.186-2.062 11.341-5.155 15.465-4.124 5.155-9.279 8.248-16.496 10.31-4.124 1.031-8.248 2.062-11.341 3.093l-10.31 2.062c-5.155 1.031-9.279 2.062-11.341 4.124-2.062 1.031-3.093 3.093-3.093 6.186 0 1.031 1.031 3.093 2.062 4.124s3.093 2.062 5.155 3.093c1.031 1.031 3.093 1.031 5.155 1.031 2.062 1.031 4.124 1.031 6.186 1.031 6.186 0 12.372-1.031 17.527-3.093 6.186-2.062 11.341-5.155 14.434-8.248h3.093v22.682c-4.124 2.062-10.31 3.093-16.496 4.124-6.186 2.062-12.372 2.062-18.558 2.062-13.403 0-23.713-3.093-31.961-8.248-8.248-6.186-12.372-13.403-12.372-22.682 0-6.186 2.062-12.372 6.186-16.496 3.093-5.155 9.279-8.248 17.527-11.341 3.093-1.031 7.217-2.062 11.341-3.093s8.248-1.031 11.341-2.062c4.124-1.031 6.186-2.062 8.248-3.093 2.062-2.062 3.093-4.124 3.093-6.186s-1.031-4.124-2.062-5.155c-1.031-1.031-3.093-2.062-5.155-3.093-1.031 0-3.093-1.031-6.186-1.031-2.062 0-4.124 0-6.186 0-5.155 0-11.341 1.031-18.558 3.093-6.186 2.062-12.372 5.155-17.527 9.279h-2.062v-23.713c5.155-2.062 10.31-4.124 16.496-5.155s13.403-2.062 21.651-2.062zM670.168 418.703v64.953l17.527-42.271h17.527l18.558 42.271v-64.953h24.744v97.947h-28.868l-22.682-49.488-21.651 49.488h-28.868v-97.947h23.713zM806.264 416.641c14.434 0 24.744 3.093 32.992 9.279s12.372 13.403 12.372 23.713c0 6.186-2.062 11.341-5.155 15.465-4.124 5.155-9.279 8.248-16.496 10.31-4.124 1.031-7.217 2.062-11.341 3.093l-10.31 2.062c-5.155 1.031-8.248 2.062-10.31 4.124-2.062 1.031-3.093 3.093-3.093 6.186 0 1.031 0 3.093 2.062 4.124 1.031 1.031 2.062 2.062 4.124 3.093s4.124 1.031 6.186 1.031c2.062 1.031 4.124 1.031 6.186 1.031 5.155 0 11.341-1.031 17.527-3.093 5.155-2.062 10.31-5.155 14.434-8.248h2.062v22.682c-4.124 2.062-9.279 3.093-15.465 4.124-7.217 2.062-13.403 2.062-19.589 2.062-12.372 0-23.713-3.093-31.961-8.248-7.217-6.186-11.341-13.403-11.341-22.682 0-6.186 1.031-12.372 5.155-16.496 3.093-5.155 9.279-8.248 17.527-11.341 4.124-1.031 7.217-2.062 11.341-3.093 4.124 0 8.248-1.031 12.372-2.062 3.093-1.031 6.186-2.062 7.217-3.093 2.062-2.062 3.093-4.124 3.093-6.186s-1.031-4.124-2.062-5.155c-1.031-1.031-3.093-2.062-5.155-3.093-1.031 0-3.093-1.031-5.155-1.031-3.093 0-5.155 0-6.186 0-6.186 0-12.372 1.031-18.558 3.093-7.217 2.062-12.372 5.155-17.527 9.279h-3.093v-23.713c5.155-2.062 11.341-4.124 16.496-5.155 6.186-1.031 13.403-2.062 21.651-2.062z" />
<glyph unicode="&#xe85f;" glyph-name="draft" d="M547.477 707.391c18.558 0 32.992-14.434 32.992-32.992s-14.434-34.023-32.992-34.023h-402.101c-18.558 0-32.992-14.434-32.992-32.992v-671.199c0-18.558 14.434-34.023 32.992-34.023h603.151c18.558 0 32.992 15.465 32.992 34.023v335.084c0 18.558 15.465 34.023 34.023 34.023s32.992-15.465 32.992-34.023v-335.084c0-55.674-44.333-101.040-100.009-101.040h-603.151c-55.674 0-100.009 45.364-100.009 101.040v671.199c0 55.674 44.333 100.009 100.009 100.009zM857.815 777.5c34.023 0 67.015-14.434 90.73-38.147 50.519-50.519 50.519-133.003 0-183.523l-440.249-444.373c-3.093-4.124-8.248-6.186-13.403-8.248l-200.019-68.046c-3.093-1.031-7.217-1.031-10.31-1.031-4.124 0-7.217 0-11.341 1.031-17.527 6.186-26.806 25.775-20.62 43.302l67.015 202.081c1.031 5.155 4.124 10.31 8.248 13.403l440.249 445.404c23.713 23.713 55.674 38.147 89.699 38.147zM901.118 690.895c-23.713 24.744-61.86 24.744-85.574 0l-435.093-439.218-43.302-130.94 129.909 44.333 434.062 439.218c12.372 11.341 18.558 26.806 18.558 43.302s-7.217 31.961-18.558 43.302z" />
<glyph unicode="&#xe860;" glyph-name="notification-1" d="M841.319 778.531c-51.55 0-94.854-38.147-102.071-87.636l-31.961-31.961c-54.643-55.674-135.065-88.668-215.484-88.668h-207.236c-45.364 0-83.512-28.868-97.947-69.077h-5.155c-76.295 0-138.158-61.86-138.158-138.158 0-77.326 61.86-139.189 138.158-139.189h5.155c11.341-29.899 34.023-52.581 63.922-63.922v-179.399c0-56.705 46.395-104.133 103.102-104.133s103.102 47.426 103.102 104.133v174.243h35.054c80.419 0 160.84-32.992 215.484-88.668l31.961-30.93c7.217-50.519 50.519-88.668 102.071-88.668 57.736 0 104.133 46.395 104.133 104.133v623.772c0 57.736-46.395 104.133-104.133 104.133zM181.461 292.918c-38.147 0-69.077 30.93-69.077 70.108 0 38.147 30.93 69.077 69.077 69.077v-139.189zM388.697-19.483c0-18.558-15.465-34.023-35.054-34.023-18.558 0-34.023 15.465-34.023 34.023v174.243h69.077v-174.243zM456.745 223.84h-172.181c-18.558 0-34.023 15.465-34.023 35.054v207.236c0 19.589 15.465 35.054 34.023 35.054h173.212v-277.347zM738.216 133.108c-58.767 50.519-133.003 81.45-212.391 88.668v281.471c78.357 7.217 153.623 38.147 212.391 88.668v-458.807zM876.373 50.627c0-19.589-15.465-35.054-35.054-35.054-18.558 0-34.023 15.465-34.023 35.054v623.772c0 19.589 15.465 35.054 34.023 35.054 19.589 0 35.054-15.465 35.054-35.054v-623.772z" />
<glyph unicode="&#xe861;" glyph-name="otp" d="M951.639 732.135h-826.885c-19.589 0-35.054-15.465-35.054-35.054v-692.851c0-19.589 15.465-35.054 35.054-35.054h310.339l73.201-117.537c6.186-10.31 17.527-16.496 29.899-16.496s22.682 6.186 28.868 16.496l74.232 117.537h310.339c18.558 0 35.054 15.465 35.054 35.054v692.851c0 19.589-16.496 35.054-35.054 35.054zM916.583 39.286h-294.874c-11.341 0-22.682-6.186-28.868-16.496l-54.643-86.605-54.643 86.605c-6.186 10.31-17.527 16.496-29.899 16.496h-293.843v622.741h756.774v-623.772zM338.177 235.181c31.961 0 56.705 9.279 74.232 27.837 17.527 17.527 26.806 42.271 26.806 74.232 0 30.93-9.279 55.674-26.806 74.232s-42.271 26.806-74.232 26.806c-30.93 0-55.674-8.248-73.201-26.806-18.558-18.558-26.806-43.302-26.806-74.232 0-31.961 8.248-56.705 26.806-74.232 17.527-18.558 42.271-27.837 73.201-27.837zM338.177 272.298c-6.186 0-12.372 1.031-18.558 3.093-5.155 3.093-10.31 6.186-14.434 11.341-5.155 5.155-8.248 12.372-11.341 20.62s-4.124 17.527-4.124 29.899c0 11.341 2.062 20.62 4.124 29.899 3.093 8.248 7.217 15.465 11.341 19.589 4.124 5.155 9.279 9.279 15.465 11.341 5.155 3.093 11.341 4.124 17.527 4.124s12.372-1.031 18.558-4.124c6.186-2.062 11.341-6.186 15.465-11.341s8.248-11.341 10.31-19.589c3.093-8.248 4.124-18.558 4.124-29.899s-1.031-20.62-3.093-28.868c-2.062-8.248-6.186-15.465-11.341-20.62-4.124-6.186-9.279-9.279-15.465-12.372-5.155-2.062-11.341-3.093-18.558-3.093zM570.159 239.305v157.747h60.829v37.116h-173.212v-37.116h61.86v-157.747h50.519zM711.409 239.305v63.922h31.961c13.403 0 25.775 2.062 35.054 5.155 10.31 4.124 18.558 10.31 26.806 17.527 5.155 6.186 9.279 13.403 12.372 21.651s5.155 16.496 5.155 25.775c0 11.341-2.062 20.62-6.186 28.868s-10.31 14.434-18.558 19.589c-6.186 4.124-13.403 7.217-22.682 9.279-8.248 2.062-18.558 3.093-30.93 3.093h-83.512v-194.864h50.519zM725.843 339.315h-14.434v58.767h14.434c6.186 0 10.31 0 14.434 0 5.155 0 10.31-2.062 15.465-4.124 4.124-1.031 7.217-4.124 10.31-8.248s4.124-8.248 4.124-14.434c0-5.155-1.031-10.31-2.062-13.403s-4.124-7.217-7.217-10.31c-3.093-3.093-8.248-5.155-13.403-6.186-6.186-1.031-13.403-2.062-21.651-2.062z" />
<glyph unicode="&#xe865;" glyph-name="videocall" horiz-adv-x="1441" d="M1134.129-89.592c0.034-1.055 0.053-2.294 0.053-3.538 0-57.809-42.106-105.787-97.324-114.935l-0.68-0.092-12.372-1.031h-913.49c-58.572 2.609-105.546 48.865-109.272 106.891l-0.017 0.333-1.031 12.372v790.799c-0.057 1.36-0.089 2.961-0.089 4.563 0 57.821 42.124 105.808 97.361 114.941l0.68 0.092 12.372 1.031h914.521c58.572-2.609 105.546-48.865 109.272-106.891l0.017-0.333v-235.074l309.308 239.198v-824.822l-309.308 239.198zM295.905 681.616c-19.589-19.589-38.147-40.209-58.767-59.798-17.384-16.459-28.596-39.281-29.89-64.724l-0.009-0.229c-0.181-3.738-0.284-8.113-0.284-12.512 0-37.895 7.683-73.992 21.582-106.823l-0.679 1.801c31.889-82.093 75.087-152.793 128.589-214.293l-0.744 0.872c71.138-85.086 158.34-154.156 257.268-203.109l4.611-2.065c42.195-22.272 91.63-37.043 144.062-41.158l1.311-0.082c3.531-0.41 7.625-0.651 11.775-0.651 31.198 0 59.291 13.326 78.886 34.6l0.068 0.075c17.527 19.589 36.085 36.085 54.643 54.643 12.325 10.467 20.097 25.977 20.097 43.302s-7.772 32.835-20.013 43.235l-0.081 0.067q-47.426 47.426-94.854 94.854c-10.272 11.936-25.397 19.443-42.271 19.443s-32-7.507-42.21-19.371l-0.061-0.072c-20.62-19.589-40.209-39.178-59.798-59.798-2.074-2.974-5.476-4.897-9.331-4.897-2.277 0-4.399 0.674-6.178 1.83l0.044-0.027c-13.403 7.217-26.806 13.403-39.178 20.62-57.062 37.384-105.73 81.792-146.483 132.798l-0.954 1.234c-20.999 24.657-38.957 52.85-52.711 83.344l-0.901 2.229c-0.931 1.698-1.474 3.718-1.474 5.865 0 3.867 1.774 7.315 4.545 9.583l0.022 0.017c19.589 19.589 39.178 39.178 58.767 58.767 12.325 10.467 20.097 25.977 20.097 43.302s-7.772 32.835-20.013 43.235l-0.081 0.067-46.395 46.395c-15.465 15.465-31.961 31.961-48.457 47.426-10.428 11.625-25.501 18.906-42.271 18.906s-31.843-7.281-42.224-18.853l-0.047-0.053z" />
<glyph unicode="&#xe866;" glyph-name="call-in" d="M853.691 171.258c-14.464 17.008-35.881 27.722-59.798 27.722s-45.334-10.714-59.706-27.612l-0.092-0.11c-27.837-27.837-55.674-55.674-82.481-83.512-3.027-4.226-7.924-6.95-13.452-6.95-3.442 0-6.639 1.055-9.287 2.862l0.057-0.036c-18.558 9.279-37.116 17.527-54.643 27.837-80.742 52.725-149.522 115.604-206.907 187.932l-1.358 1.779c-29.135 34.449-54.013 73.861-72.992 116.478l-1.24 3.121c-1.306 2.392-2.077 5.245-2.077 8.275 0 5.349 2.395 10.141 6.176 13.355l0.025 0.020c27.837 26.806 54.643 54.643 82.481 82.481 17.399 14.659 28.379 36.464 28.379 60.829s-10.98 46.17-28.258 60.732l-0.119 0.097c-21.651 21.651-43.302 43.302-64.953 64.953-22.682 22.682-45.364 45.364-68.046 68.046-14.579 16.047-35.533 26.074-58.823 26.074-23.778 0-45.117-10.453-59.666-27.016l-0.076-0.089c-27.837-26.806-54.643-55.674-83.512-82.481-24.518-23.285-40.348-55.505-42.257-91.422l-0.014-0.337c-0.207-4.753-0.325-10.322-0.325-15.922 0-54.183 11.116-105.766 31.187-152.599l-0.963 2.522c44.937-114.979 105.529-214.004 180.455-300.24l-1.056 1.241c100.034-119.629 222.581-216.796 361.588-285.775l6.486-2.914c59.152-31.914 128.505-53.291 202.153-59.66l1.99-0.138c4.791-0.547 10.339-0.856 15.965-0.856 44.448 0 84.367 19.4 111.753 50.193l0.132 0.151c23.713 26.806 50.519 50.519 76.295 76.295 17.045 14.646 27.768 36.227 27.768 60.317s-10.723 45.667-27.664 60.228l-0.104 0.088q-65.984 67.015-133.003 134.034zM738.216 529.024c4.347-4.858 10.547-7.979 17.481-8.247l0.046-0.001h178.368c0.201-0.006 0.438-0.009 0.683-0.009 14.236 0 25.775 11.539 25.775 25.775 0 7.288-3.026 13.872-7.892 18.559l-0.008 0.008-57.736 56.705 131.972 131.972c2.533 2.274 4.124 5.56 4.124 9.222 0 0.020 0 0.040 0 0.060v-0.003c0 0.017 0 0.037 0 0.057 0 3.662-1.591 6.948-4.113 9.212l-0.011 0.010-45.364 45.364c-2.277 2.577-5.587 4.188-9.279 4.188s-7.002-1.618-9.268-4.175l-0.011-0.013-131.972-131.972-57.736 57.736c-4.582 4.262-10.749 6.881-17.529 6.881-14.118 0-25.583-11.348-25.773-25.421v-178.386c0.269-6.98 3.39-13.18 8.225-17.506l0.023-0.021z" />
<glyph unicode="&#xe868;" glyph-name="meeting" d="M354.673 5.261c64.68-0.581 116.96-52.857 117.537-117.482v-65.008c0-17.651-14.31-31.961-31.961-31.961v0h-408.287c-17.651 0-31.961 14.31-31.961 31.961v0 64.953c0.587 65.037 53.443 117.537 118.564 117.537 0.002 0 0.003 0 0.005 0h236.105zM913.49 5.261c64.68-0.581 116.96-52.857 117.537-117.482v-65.008c0-17.651-14.31-31.961-31.961-31.961v0h-408.287c-17.651 0-31.961 14.31-31.961 31.961v0 64.953c0.581 64.68 52.857 116.96 117.482 117.537h236.161zM236.105 306.322c71.176 0 128.878-57.7 128.878-128.878s-57.7-128.878-128.878-128.878c-71.176 0-128.878 57.7-128.878 128.878v0c0 71.176 57.7 128.878 128.878 128.878v0zM794.923 306.322c71.176 0 128.878-57.7 128.878-128.878s-57.7-128.878-128.878-128.878c-71.176 0-128.878 57.7-128.878 128.878v0c0 71.176 57.7 128.878 128.878 128.878v0zM814.512 821.836c48.457 0 75.263-16.496 75.263-63.922v-267.037c0-48.457-26.806-68.046-75.263-68.046h-310.339q-12.372 0-83.512-93.823c-5.773-3.878-12.876-6.186-20.518-6.186-0.036 0-0.072 0-0.108 0h0.006c-0.305-0.009-0.671-0.014-1.031-0.014-20.499 0-37.116 16.617-37.116 37.116 0 0.005 0 0.010 0 0.015v-0.001 397.977c0 47.426 24.744 63.922 73.201 63.922h379.418zM674.292 565.11h-182.492c-17.81-0.159-32.618-12.842-36.045-29.662l-0.040-0.237-1.031-7.217v-11.341c0.159-17.81 12.842-32.618 29.662-36.045l0.237-0.040 7.217-1.031h182.492c0.209-0.004 0.455-0.007 0.709-0.007 17.946 0 32.92 12.736 36.367 29.669l0.040 0.237v18.558c0 20.499-16.617 37.116-37.116 37.116v0zM760.898 736.259h-269.099c-17.81-0.159-32.618-12.842-36.045-29.662l-0.040-0.237-1.031-7.217v-11.341c0.159-17.81 12.842-32.618 29.662-36.045l0.237-0.040 7.217-1.031h269.099c17.81 0.159 32.618 12.842 36.045 29.662l0.040 0.237v18.558c0 0.004 0 0.009 0 0.014 0 20.139-16.038 36.529-36.032 37.101l-0.053 0.001z" />
<glyph unicode="&#xe869;" glyph-name="present" d="M0 821.836h1031.028v-138.158h-1031.028zM92.792 61.968h392.821v-94.854c-35.723-12.732-60.829-46.266-60.829-85.661 0-50.11 40.623-90.73 90.73-90.73s90.73 40.623 90.73 90.73c0 39.394-25.107 72.928-60.198 85.463l-0.636 0.196v94.854h392.821v560.88h-845.443v-560.88zM515.512-148.362c-16.513 0-29.899 13.386-29.899 29.899s13.386 29.899 29.899 29.899c16.513 0 29.899-13.386 29.899-29.899v0c0-16.513-13.386-29.899-29.899-29.899v0z" />
<glyph unicode="&#xe86a;" glyph-name="support" d="M870.187 413.548c88.955-0.588 160.84-72.832 160.84-161.868 0-0.001 0-0.002 0-0.003v0-137.127c0-88.829-72.010-160.84-160.84-160.84v0h-40.209v-2.062c0-66.623-54.009-120.63-120.63-120.63v0h-123.723v1.031c-14.024-24.784-40.203-41.24-70.23-41.24-44.413 0-80.419 36.005-80.419 80.419s36.005 80.419 80.419 80.419c30.025 0 56.212-16.456 70.022-40.843l0.207-0.397v1.031h123.723c22.21 0 40.209 18.004 40.209 40.209v0 421.69c0 22.21 18.004 40.209 40.209 40.209v0zM515.512 821.836c0.131 0 0.286 0 0.441 0 185.866 0 344.511-116.545 406.845-280.543l0.998-2.99c1.695-4.282 2.676-9.244 2.676-14.434 0-22.263-18.049-40.304-40.304-40.304-17.073 0-31.663 10.609-37.539 25.598l-0.094 0.272c-51.255 136.849-180.941 232.499-332.967 232.499-186.629 0-339.592-144.147-353.623-327.181l-0.074-1.203h79.388c0.309 0.009 0.68 0.013 1.044 0.013 22.21 0 40.209-18.004 40.209-40.209 0-0.365-0.005-0.736-0.015-1.098l0.001 0.054v-378.387c0-0.004 0-0.009 0-0.013 0-22.21-18.004-40.209-40.209-40.209-0.36 0-0.726 0.005-1.084 0.014l0.053-0.001h-80.419c-88.829 0-160.84 72.010-160.84 160.84v0 137.127c-0.002 0.273-0.003 0.604-0.003 0.927 0 59.222 32.005 110.966 79.664 138.882l0.761 0.408c2.912 238.068 196.58 429.938 435.063 429.938 0.011 0 0.021 0 0.032 0h-0.001z" />
<glyph unicode="&#xe86b;" glyph-name="trainning" horiz-adv-x="1068" d="M756.774 821.836c28.49-1.009 51.466-23.276 53.601-51.363l0.011-0.187h213.422c0.476 0.013 1.044 0.021 1.613 0.021 5.663 0 11.144-0.762 16.352-2.183l-0.431 0.1c15.939-7.268 26.814-23.062 26.814-41.397 0-0.305-0.003-0.616-0.009-0.919l0.001 0.045c-3.128-19.454-18.551-34.529-37.923-37.092l-0.224-0.024v-29.899c0-92.792-1.031-155.685 0-264.975 0.141-1.862 0.222-4.029 0.222-6.216 0-47.832-38.777-86.605-86.605-86.605-0.805 0-1.608 0.011-2.401 0.032l0.117-0.003c-168.057 1.031-202.081 0-370.138 1.031-0.089 0-0.194-0.001-0.299-0.001-45.29 0-82.461 34.767-86.283 79.067l-0.022 0.321c-1.114 11.668-1.753 25.234-1.753 38.944 0 8.791 0.259 17.515 0.778 26.174l-0.056-1.192v11.341h76.295v-74.232c164.964 0 208.267 0 358.797 0h30.93v305.184h-387.666v-85.574h-80.419v86.605c-19.281 4.376-33.828 20.321-36.065 39.998l-0.020 0.211c1.809 21.321 18.119 38.333 38.942 41.213l0.236 0.027c3.080 0.171 6.685 0.268 10.31 0.268s7.23-0.097 10.811-0.29l-0.495 0.021h196.926c2.186 28.623 25.719 51.082 54.597 51.549l0.046 0.001zM191.771 821.836c62.197-2.015 111.85-52.918 111.85-115.417 0-58.498-43.495-106.836-99.913-114.436l-0.597-0.065h413.442c1.23 0.068 2.676 0.106 4.124 0.106 43.906 0 79.495-35.594 79.495-79.495 0-42.451-33.276-77.134-75.171-79.38l-0.198-0.008h-248.477v-303.122h-69.077v11.341c-4.894 80.882-71.684 144.622-153.359 144.622-76.572 0-140.059-56.022-151.71-129.314l-0.114-0.875c-0.507 2.982-0.881 6.531-1.026 10.144l-0.005 0.166-1.031 8.248v338.177c-0.002 0.201-0.003 0.438-0.003 0.683 0 39.643 29.439 72.408 67.645 77.633l0.404 0.045h122.692c-63.555 0.291-114.961 51.881-114.961 115.475 0 63.775 51.698 115.476 115.476 115.476 0.18 0 0.36 0 0.547-0.001h-0.028zM534.074-17.421c94.854 0 147.437-37.116 152.592-84.543v-107.227h-305.184v98.978c0 51.55 52.581 92.792 152.592 92.792zM152.592-17.421c94.854 0 147.437-37.116 152.592-84.543v-107.227h-305.184v98.978c0 51.55 52.581 92.792 152.592 92.792zM915.552-17.421c94.854 0 147.437-37.116 152.592-84.543v-107.227h-305.184v98.978c0 51.55 52.581 92.792 152.592 92.792zM534.074 214.561c0.304 0.003 0.671 0.005 1.031 0.005 56.373 0 102.071-45.699 102.071-102.071s-45.699-102.071-102.071-102.071c-56.372 0-102.068 45.696-102.071 102.065v0c0 0.002 0 0.003 0 0.005 0 56.010 45.114 101.485 100.985 102.065h0.055zM152.592 214.561c0.304 0.003 0.671 0.005 1.031 0.005 56.373 0 102.071-45.699 102.071-102.071s-45.699-102.071-102.071-102.071c-56.372 0-102.068 45.696-102.071 102.065v0c0 0.002 0 0.003 0 0.005 0 56.010 45.114 101.485 100.985 102.065h0.055zM915.552 214.561c0.304 0.003 0.671 0.005 1.031 0.005 56.373 0 102.071-45.699 102.071-102.071s-45.699-102.071-102.071-102.071c-56.372 0-102.068 45.696-102.071 102.065v0c0 0.002 0 0.003 0 0.005 0 56.010 45.114 101.485 100.985 102.065h0.055z" />
<glyph unicode="&#xe86c;" glyph-name="report-1" d="M706.254 821.836h-572.221v-1031.028h807.295v802.14l-235.074 228.888zM835.133 610.476h-111.351v108.258l111.351-108.258zM241.26-148.362l156.716 152.592 93.823-90.73 231.981 225.795v-78.357h62.891v181.461h-186.616v-60.829h79.388l-187.647-183.523-93.823 90.73-201.050-194.864v867.094h464.993v-211.36h217.546v-698.006h-638.206zM275.285 615.631h245.384v-69.077h-245.384zM275.285 478.504h245.384v-69.077h-245.384z" />
<glyph unicode="&#xe86d;" glyph-name="trash" d="M938.235 682.647h-246.415v35.054c0 57.736-47.426 104.133-106.196 104.133h-140.22c-58.767 0-106.196-46.395-106.196-104.133v-35.054h-246.415c-19.589 0-35.054-15.465-35.054-35.054 0-18.558 15.465-34.023 35.054-34.023h38.147l67.015-734.091c2.062-17.527 17.527-31.961 36.085-30.93h563.973c17.527-1.031 32.992 13.403 35.054 30.93l67.015 734.091h38.147c19.589 0 35.054 15.465 35.054 34.023 0 19.589-15.465 35.054-35.054 35.054zM409.318 717.701c0 19.589 16.496 35.054 36.085 35.054h140.22c19.589 0 36.085-15.465 36.085-35.054v-35.054h-212.391v35.054zM377.356-12.266h-3.093c-18.558 0-34.023 13.403-35.054 31.961l-35.054 486.644c-1.031 19.589 13.403 36.085 32.992 37.116 19.589 2.062 36.085-12.372 37.116-31.961l35.054-486.644c2.062-19.589-12.372-36.085-31.961-37.116zM550.57 21.757c0-18.558-15.465-34.023-35.054-34.023s-35.054 15.465-35.054 34.023v487.675c0 18.558 15.465 34.023 35.054 34.023s35.054-15.465 35.054-34.023v-487.675zM726.874 506.341l-35.054-486.644c-1.031-18.558-16.496-31.961-35.054-31.961h-3.093c-19.589 1.031-34.023 17.527-31.961 37.116v0l35.054 486.644c1.031 19.589 18.558 34.023 37.116 31.961 19.589-1.031 34.023-17.527 32.992-37.116z" />
<glyph unicode="&#xe86e;" glyph-name="lock" d="M865.032 366.121h-49.488v147.437c0 170.119-135.065 308.277-300.029 308.277s-300.029-138.158-300.029-308.277v-147.437h-49.488c-27.837 0-51.55-23.713-51.55-53.612v-468.086c0-29.899 23.713-53.612 51.55-53.612h699.037c27.837 0 51.55 23.713 51.55 53.612v468.086c0 29.899-23.713 53.612-51.55 53.612zM341.27 513.559c0 97.947 78.357 178.368 174.243 178.368s174.243-80.419 174.243-178.368v-147.437h-348.487v147.437zM572.221 60.937v-95.885c0-31.961-25.775-58.767-56.705-58.767s-56.705 26.806-56.705 58.767v95.885c-20.62 16.496-34.023 43.302-34.023 73.201 0 51.55 40.209 93.823 90.73 93.823s90.73-42.271 90.73-93.823c0-29.899-13.403-56.705-34.023-73.201z" />
<glyph unicode="&#xe86f;" glyph-name="share" d="M813.481 821.836c88.668 0 159.809-69.077 159.809-154.654s-71.139-154.654-159.809-154.654c-4.124 0-8.248 0-12.372 0-3.093 0-7.217 0-10.31 0-37.116 0-70.108 13.403-94.854 36.085l-319.619-190.74c1.031-7.217 2.062-15.465 2.062-22.682 0-4.124 0-7.217-1.031-11.341 1.031-3.093 1.031-7.217 1.031-11.341v-1.031l317.557-189.709c24.744 22.682 57.736 36.085 94.854 36.085 3.093 0 7.217 0 10.31 0 4.124 0 8.248 0 12.372 0 88.668 0 159.809-69.077 159.809-154.654s-71.139-154.654-159.809-154.654c-88.668 0-160.84 69.077-160.84 154.654 0 4.124 1.031 7.217 1.031 11.341 0 3.093-1.031 7.217-1.031 10.31 0 8.248 1.031 15.465 2.062 22.682l-302.091 180.43c-28.868-42.271-78.357-70.108-135.065-70.108-88.668 0-159.809 69.077-159.809 154.654s71.139 155.685 159.809 155.685c4.124 0 8.248-1.031 12.372-1.031 3.093 0 7.217 1.031 10.31 1.031 37.116 0 70.108-14.434 94.854-37.116l319.619 190.74c-1.031 7.217-2.062 15.465-2.062 22.682 0 4.124 1.031 7.217 1.031 11.341 0 3.093-1.031 7.217-1.031 11.341 0 85.574 72.17 154.654 160.84 154.654z" />
<glyph unicode="&#xe870;" glyph-name="lock-1" horiz-adv-x="775" d="M0 80.526v225.795q0 40.209 27.837 68.046t69.077 28.868v128.878q0 120.63 84.543 205.174t205.174 84.543 205.174-84.543 84.543-205.174v-128.878q40.209 0 69.077-28.868t27.837-68.046v-225.795q0-120.63-84.543-205.174t-205.174-84.543h-193.833q-120.63 0-205.174 84.543t-84.543 205.174zM64.953 80.526q0-92.792 65.984-158.778t158.778-67.015h193.833q92.792 0 158.778 67.015t67.015 158.778v225.795q0 14.434-9.279 22.682t-23.713 9.279h-579.438q-14.434 0-23.713-9.279t-8.248-22.682v-225.795zM160.84 403.238h64.953v128.878q0 65.984 47.426 113.413t113.413 47.426 113.413-47.426 47.426-113.413v-128.878h64.953v128.878q0 92.792-67.015 158.778t-158.778 65.984-158.778-65.984-67.015-158.778v-128.878zM257.756 403.238h257.756v128.878q0 53.612-37.116 91.761t-91.761 37.116-91.761-37.116-37.116-91.761v-128.878zM322.712 145.48q0 25.775 18.558 45.364t45.364 18.558 45.364-18.558 19.589-45.364q0-28.868-22.682-86.605-14.434-42.271-42.271-42.271t-42.271 42.271q-21.651 57.736-21.651 86.605z" />
<glyph unicode="&#xe875;" glyph-name="view-pass" d="M515.512 649.655c234.043 0 434.062-142.282 515.512-343.332-81.45-201.050-281.471-343.332-515.512-343.332s-434.062 142.282-515.512 343.332c81.45 201.050 281.471 343.332 515.512 343.332zM489.737 544.489c-127.847 0-231.981-107.227-231.981-238.167s104.133-238.167 231.981-238.167c127.847 0 231.981 107.227 231.981 238.167s-104.133 238.167-231.981 238.167zM486.644 478.504c79.388 0 143.313-77.326 143.313-172.181s-63.922-172.181-143.313-172.181c-78.357 0-143.313 77.326-143.313 172.181s64.953 172.181 143.313 172.181z" />
<glyph unicode="&#xe876;" glyph-name="calendar" d="M758.836 776.469v-90.73h136.096c50.519 0 90.73-40.209 90.73-90.73v-680.479c0-49.488-40.209-90.73-90.73-90.73h-816.574c-49.488 0-90.73 41.24-90.73 90.73v680.479c0 50.519 41.24 90.73 90.73 90.73h90.73v-90.73h-90.73v-680.479h816.574v680.479h-136.096v-90.73h-90.73v272.192h90.73zM350.549 186.724v-181.461h-181.461v181.461h181.461zM577.376 186.724v-181.461h-181.461v181.461h181.461zM350.549 413.548v-181.461h-181.461v181.461h181.461zM577.376 413.548v-181.461h-181.461v181.461h181.461zM804.202 413.548v-181.461h-181.461v181.461h181.461zM305.184 776.469v-90.73h317.557v-90.73h-317.557v-90.73h-90.73v272.192h90.73z" />
<glyph unicode="&#xe877;" glyph-name="change" d="M449.528 197.034c22.682 0 42.271-17.527 44.333-40.209l1.031-5.155v-175.274c0-23.713-18.558-43.302-41.24-45.364l-4.124-1.031h-263.944c-23.713 0-43.302 18.558-45.364 41.24l-1.031 5.155v175.274c0 23.713 18.558 43.302 41.24 45.364h269.099zM888.746 373.338c23.713 0 43.302-17.527 45.364-40.209v-356.735c0-23.713-17.527-43.302-40.209-45.364l-5.155-1.031h-263.944c-22.682 0-42.271 18.558-45.364 41.24v356.735c0 23.713 17.527 42.271 40.209 45.364h269.099zM429.938 133.108h-225.795v-138.158h225.795v138.158zM870.187 308.384h-225.795v-313.432h225.795v313.432zM449.528 724.918c22.682 0 42.271-17.527 44.333-40.209l1.031-5.155v-351.58c0-23.713-18.558-43.302-41.24-45.364h-268.068c-23.713 0-43.302 17.527-45.364 40.209l-1.031 5.155v351.58c0 23.713 18.558 43.302 41.24 45.364h269.099zM429.938 660.996h-225.795v-314.463h225.795v314.463zM888.746 724.918c23.713 0 43.302-17.527 45.364-40.209v-180.43c0-23.713-17.527-43.302-40.209-45.364h-269.099c-22.682 0-42.271 17.527-45.364 40.209v180.43c0 23.713 17.527 43.302 40.209 45.364h269.099zM870.187 660.996h-225.795v-138.158h225.795v138.158z" />
<glyph unicode="&#xe878;" glyph-name="user" horiz-adv-x="1096" d="M346.425 707.391c-100.009 0-181.461-89.699-181.461-200.019s81.45-198.988 181.461-198.988c101.040 0 182.492 88.668 182.492 198.988s-81.45 200.019-182.492 200.019zM759.867 678.523h-1.031c-42.271 0-81.45-18.558-110.32-51.55s-44.333-75.263-44.333-120.63c0-45.364 16.496-87.636 46.395-119.599 28.868-32.992 68.046-50.519 109.289-50.519h2.062c41.24 1.031 81.45 18.558 110.32 51.55s44.333 75.263 44.333 120.63c-1.031 93.823-71.139 170.119-156.716 170.119zM768.115 304.26h-15.465c-70.108 0-134.034-27.837-182.492-73.201 11.341-10.31 23.713-20.62 34.023-31.961 31.961-32.992 57.736-72.17 75.263-115.475 16.496-39.178 25.775-80.419 27.837-122.692h333.022v60.829c0 155.685-121.661 282.502-272.192 282.502zM648.516-39.072c-6.186 91.761-50.519 173.212-117.537 224.763-49.488 37.116-109.289 59.798-175.274 59.798h-17.527c-161.871 0-293.843-136.096-293.843-303.122v-36.085h604.182v36.085c0 6.186 0 12.372 0 18.558z" />
<glyph unicode="&#xe87a;" glyph-name="cmp" d="M555.725 821.836c10.31 0 19.589-9.279 19.589-20.62v-220.639h378.387c11.341 0 19.589-9.279 19.589-20.62v-748.526c0-11.341-8.248-20.62-19.589-20.62h-876.373c-11.341 0-19.589 9.279-19.589 20.62v989.788c0 11.341 8.248 20.62 19.589 20.62zM376.325-8.142h-119.599v-160.84h119.599v160.84zM535.105 781.624h-438.186v-950.608h119.599v181.461c0 11.341 9.279 19.589 19.589 19.589h159.809c11.341 0 19.589-8.248 19.589-19.589v-181.461h119.599v950.608zM934.111-8.142h-358.797v-160.84h358.797v160.84zM934.111 540.365h-358.797v-508.295h358.797v508.295zM334.053 179.507c11.341 0 20.62-9.279 20.62-20.62v-41.24c0-11.341-9.279-20.62-20.62-20.62h-40.209c-11.341 0-20.62 9.279-20.62 20.62v41.24c0 11.341 9.279 20.62 20.62 20.62zM194.864 179.507c11.341 0 19.589-9.279 19.589-20.62v-41.24c0-11.341-8.248-20.62-19.589-20.62h-41.24c-11.341 0-20.62 9.279-20.62 20.62v41.24c0 11.341 9.279 20.62 20.62 20.62zM474.272 179.507c11.341 0 20.62-9.279 20.62-20.62v-41.24c0-11.341-9.279-20.62-20.62-20.62h-40.209c-11.341 0-20.62 9.279-20.62 20.62v41.24c0 11.341 9.279 20.62 20.62 20.62zM842.35 179.507c11.341 0 20.62-9.279 20.62-20.62v-41.24c0-11.341-9.279-20.62-20.62-20.62h-41.24c-11.341 0-19.589 9.279-19.589 20.62v41.24c0 11.341 8.248 20.62 19.589 20.62zM708.316 179.507c11.341 0 20.62-9.279 20.62-20.62v-41.24c0-11.341-9.279-20.62-20.62-20.62h-41.24c-11.341 0-20.62 9.279-20.62 20.62v41.24c0 11.341 9.279 20.62 20.62 20.62zM334.053 320.756c11.341 0 20.62-9.279 20.62-20.62v-41.24c0-11.341-9.279-20.62-20.62-20.62h-40.209c-11.341 0-20.62 9.279-20.62 20.62v41.24c0 11.341 9.279 20.62 20.62 20.62zM194.864 320.756c11.341 0 19.589-9.279 19.589-20.62v-41.24c0-11.341-8.248-20.62-19.589-20.62h-41.24c-11.341 0-20.62 9.279-20.62 20.62v41.24c0 11.341 9.279 20.62 20.62 20.62zM474.272 320.756c11.341 0 20.62-9.279 20.62-20.62v-41.24c0-11.341-9.279-20.62-20.62-20.62h-40.209c-11.341 0-20.62 9.279-20.62 20.62v41.24c0 11.341 9.279 20.62 20.62 20.62zM842.35 320.756c11.341 0 20.62-9.279 20.62-20.62v-41.24c0-11.341-9.279-20.62-20.62-20.62h-41.24c-11.341 0-19.589 9.279-19.589 20.62v41.24c0 11.341 8.248 20.62 19.589 20.62zM708.316 320.756c11.341 0 20.62-9.279 20.62-20.62v-41.24c0-11.341-9.279-20.62-20.62-20.62h-41.24c-11.341 0-20.62 9.279-20.62 20.62v41.24c0 11.341 9.279 20.62 20.62 20.62zM335.084 462.007c10.31 0 19.589-9.279 19.589-20.62v-41.24c0-11.341-9.279-20.62-19.589-20.62h-41.24c-11.341 0-20.62 9.279-20.62 20.62v41.24c0 11.341 9.279 20.62 20.62 20.62zM194.864 462.007c11.341 0 19.589-9.279 19.589-20.62v-41.24c0-11.341-8.248-20.62-19.589-20.62h-41.24c-11.341 0-20.62 9.279-20.62 20.62v41.24c0 11.341 9.279 20.62 20.62 20.62zM474.272 462.007c11.341 0 20.62-9.279 20.62-20.62v-41.24c0-11.341-9.279-20.62-20.62-20.62h-40.209c-11.341 0-20.62 9.279-20.62 20.62v41.24c0 11.341 9.279 20.62 20.62 20.62zM842.35 462.007c11.341 0 20.62-9.279 20.62-20.62v-41.24c0-11.341-9.279-20.62-20.62-20.62h-41.24c-10.31 0-19.589 9.279-19.589 20.62v41.24c0 11.341 9.279 20.62 19.589 20.62zM708.316 462.007c11.341 0 20.62-9.279 20.62-20.62v-41.24c0-11.341-9.279-20.62-20.62-20.62h-41.24c-11.341 0-20.62 9.279-20.62 20.62v41.24c0 11.341 9.279 20.62 20.62 20.62zM335.084 604.289c10.31 0 19.589-9.279 19.589-20.62v-41.24c0-11.341-9.279-20.62-19.589-20.62h-41.24c-11.341 0-20.62 9.279-20.62 20.62v41.24c0 11.341 9.279 20.62 20.62 20.62zM194.864 604.289c11.341 0 19.589-9.279 19.589-20.62v-41.24c0-11.341-8.248-20.62-19.589-20.62h-41.24c-11.341 0-20.62 9.279-20.62 20.62v41.24c0 11.341 9.279 20.62 20.62 20.62zM474.272 604.289c11.341 0 20.62-9.279 20.62-20.62v-41.24c0-11.341-9.279-20.62-20.62-20.62h-40.209c-11.341 0-20.62 9.279-20.62 20.62v41.24c0 11.341 9.279 20.62 20.62 20.62zM334.053 739.352c11.341 0 20.62-9.279 20.62-20.62v-41.24c0-11.341-9.279-20.62-20.62-20.62h-40.209c-11.341 0-20.62 9.279-20.62 20.62v41.24c0 11.341 9.279 20.62 20.62 20.62zM194.864 739.352c11.341 0 19.589-9.279 19.589-20.62v-41.24c0-11.341-8.248-20.62-19.589-20.62h-41.24c-11.341 0-20.62 9.279-20.62 20.62v41.24c0 11.341 9.279 20.62 20.62 20.62zM474.272 739.352c11.341 0 20.62-9.279 20.62-20.62v-41.24c0-11.341-9.279-20.62-20.62-20.62h-40.209c-11.341 0-20.62 9.279-20.62 20.62v41.24c0 11.341 9.279 20.62 20.62 20.62z" />
<glyph unicode="&#xe87f;" glyph-name="user-1" d="M601.089 187.755c141.251 0 279.409-60.829 372.2-188.678v-208.267h-915.552v208.267c92.792 127.847 231.981 188.678 372.2 188.678zM601.089 131.046h-171.15c-124.754 0-240.229-55.674-311.37-149.499v-134.034h793.892v134.034c-71.139 93.823-186.616 149.499-311.37 149.499zM515.512 821.836c160.84 0 291.781-124.754 291.781-277.347s-130.94-277.347-291.781-277.347-291.781 123.723-291.781 277.347 130.94 277.347 291.781 277.347zM515.512 759.972c-124.754 0-226.826-96.916-226.826-215.484 0-119.599 102.071-216.515 226.826-216.515s226.826 96.916 226.826 216.515c0 118.568-102.071 215.484-226.826 215.484z" />
<glyph unicode="&#xe880;" glyph-name="setting-sendername" d="M887.715 792.966h-744.402c-62.891 0-114.444-50.519-114.444-114.444v-744.402c0-63.922 51.55-114.444 114.444-114.444h744.402c63.922 0 114.444 50.519 114.444 114.444v744.402c0 63.922-50.519 114.444-114.444 114.444zM143.313 736.259h744.402c31.961 0 57.736-25.775 57.736-57.736v-744.402c0-31.961-25.775-57.736-57.736-57.736h-744.402c-31.961 0-57.736 25.775-57.736 57.736v744.402c0 31.961 25.775 57.736 57.736 57.736zM802.14 583.668c26.806 0 48.457-21.651 48.457-48.457 0-24.744-18.558-45.364-42.271-48.457h-350.549c-26.806 0-48.457 21.651-48.457 48.457 0 24.744 18.558 45.364 43.302 48.457h349.518zM802.14 354.78c26.806 0 48.457-21.651 48.457-48.457 0-24.744-18.558-45.364-42.271-48.457h-350.549c-26.806 0-48.457 21.651-48.457 48.457 0 24.744 18.558 45.364 43.302 48.457h349.518zM802.14 125.891c26.806 0 48.457-21.651 48.457-48.457 0-24.744-18.558-45.364-42.271-48.457h-350.549c-26.806 0-48.457 21.651-48.457 48.457 0 24.744 18.558 45.364 43.302 48.457h349.518zM270.13 576.451c-22.682 21.651-58.767 21.651-81.45 0-22.682-22.682-22.682-58.767 0-81.45s58.767-22.682 81.45 0c21.651 22.682 21.651 58.767 0 81.45zM270.13 346.532c-22.682 22.682-58.767 22.682-81.45 0-22.682-21.651-22.682-58.767 0-80.419 22.682-22.682 58.767-22.682 81.45 0 21.651 21.651 21.651 58.767 0 80.419zM270.13 117.643c-22.682 22.682-58.767 22.682-81.45 0s-22.682-58.767 0-80.419c22.682-22.682 58.767-22.682 81.45 0 21.651 21.651 21.651 57.736 0 80.419z" />
<glyph unicode="&#xe881;" glyph-name="department" d="M916.583 248.584h62.891c26.806 0 48.457-18.558 51.55-43.302v-193.833c0-24.744-19.589-45.364-45.364-48.457h-304.153c-26.806 0-48.457 18.558-51.55 43.302v193.833c0 25.775 20.62 46.395 45.364 48.457l6.186 1.031h177.337v114.444h-629.958v-115.475h120.63c26.806 0 48.457-18.558 51.55-43.302v-193.833c0-24.744-20.62-45.364-45.364-48.457h-304.153c-26.806 0-48.457 18.558-51.55 43.302v193.833c0 25.775 19.589 46.395 45.364 48.457h126.816v172.181h343.332v114.444h-120.63c-26.806 0-48.457 19.589-50.519 43.302l-1.031 6.186v188.678c0 24.744 20.62 45.364 46.395 48.457h303.122c26.806 0 48.457-18.558 51.55-43.302v-194.864c0-24.744-19.589-45.364-45.364-48.457h-125.785v-114.444h343.332v-172.181zM343.332 191.879h-285.595v-172.181h285.595v172.181zM973.291 191.879h-285.595v-172.181h285.595v172.181zM687.696 764.096h-286.626v-171.15h286.626v171.15z" />
<glyph unicode="&#xe882;" glyph-name="change-cmp" d="M693.882 552.737c37.116 0 68.046-30.93 68.046-68.046v-580.469c0-38.147-30.93-69.077-68.046-69.077h-580.469c-38.147 0-68.046 30.93-68.046 69.077v580.469c0 37.116 29.899 68.046 68.046 68.046h580.469zM410.349 97.023h-13.403c-122.692 0-221.67-78.357-221.67-175.274v-20.62h456.745v20.62c0 3.093 0 7.217-1.031 10.31-4.124 53.612-38.147 100.009-88.668 129.909-37.116 21.651-82.481 35.054-131.972 35.054zM399.008 418.703c-71.139 0-129.909-58.767-129.909-130.94 0-71.139 58.767-129.909 129.909-129.909s130.94 58.767 130.94 129.909-58.767 130.94-130.94 130.94zM893.901 821.836c75.263 0 137.127-61.86 137.127-137.127v-487.675c0-75.263-61.86-137.127-137.127-137.127h-8.248c0 3.093 1.031 7.217 1.031 10.31v487.675c0 75.263-61.86 137.127-138.158 137.127h-658.827c6.186 71.139 64.953 126.816 137.127 126.816h667.075z" />
<glyph unicode="&#xe884;" glyph-name="group-1" d="M462.931 644.5c46.395 0 84.543 38.147 84.543 84.543s-38.147 83.512-84.543 83.512-84.543-37.116-84.543-83.512 38.147-84.543 84.543-84.543zM462.931 771.313c23.713 0 42.271-19.589 42.271-42.271s-18.558-42.271-42.271-42.271-42.271 18.558-42.271 42.271 18.558 42.271 42.271 42.271zM493.861 631.097c-1.031 0-1.031 0-1.031 0h-59.798c-62.891 2.062-115.475-48.457-117.537-111.351 0-1.031 0-1.031 0-1.031v-17.527c0-11.341 11.341-17.527 23.713-17.527h247.446c12.372 0 23.713 6.186 23.713 17.527v17.527c-1.031 62.891-53.612 113.413-116.506 112.382zM359.828 525.931c2.062 30.93 35.054 62.891 73.201 62.891h59.798c38.147 0 71.139-31.961 73.201-62.891h-206.205zM120.63 278.484c12.372 0 21.651 9.279 21.651 20.62 0 97.947 44.333 189.709 119.599 250.539 8.248 8.248 8.248 21.651 1.031 29.899-7.217 7.217-18.558 8.248-26.806 3.093-86.605-69.077-136.096-173.212-136.096-283.533 0-11.341 9.279-20.62 20.62-20.62zM565.004-4.018c0 0 0 0 0 0-65.984-22.682-137.127-22.682-203.112 0-11.341 3.093-22.682-3.093-25.775-14.434-4.124-10.31 1.031-21.651 11.341-25.775 0 0 0 0 1.031 0 74.232-25.775 155.685-25.775 229.919 0 11.341 4.124 17.527 15.465 14.434 26.806-4.124 11.341-16.496 16.496-27.837 13.403zM648.516 560.986c84.543-59.798 135.065-157.747 135.065-261.88 0-11.341 9.279-20.62 21.651-20.62s20.62 9.279 20.62 20.62c0 118.568-57.736 228.888-153.623 296.936-9.279 7.217-22.682 4.124-28.868-5.155-7.217-9.279-5.155-22.682 5.155-29.899zM147.437 66.092c46.395 0 84.543 37.116 84.543 84.543s-38.147 83.512-84.543 83.512-84.543-37.116-84.543-83.512 38.147-84.543 84.543-84.543zM147.437 191.879c22.682 0 42.271-18.558 42.271-41.24s-19.589-42.271-42.271-42.271-42.271 18.558-42.271 42.271 18.558 41.24 42.271 41.24zM178.368 52.689c-1.031 0-1.031 0-2.062 0h-58.767c-62.891 1.031-115.475-48.457-117.537-112.382 0 0 0 0 0-1.031v-16.496c0-11.341 11.341-17.527 22.682-17.527h248.477c12.372 0 23.713 6.186 23.713 17.527v16.496c-1.031 63.922-53.612 114.444-116.506 113.413zM44.333-52.476c2.062 30.93 35.054 62.891 73.201 62.891h58.767c39.178 0 72.17-31.961 74.232-62.891h-206.205zM694.913 150.635c0-47.426 37.116-84.543 83.512-84.543s84.543 37.116 84.543 84.543-38.147 83.512-84.543 83.512-83.512-37.116-83.512-83.512zM820.698 150.635c0-23.713-18.558-42.271-42.271-42.271s-42.271 18.558-42.271 42.271 19.589 41.24 42.271 41.24 42.271-18.558 42.271-41.24zM809.357 52.689c-1.031 0-1.031 0-1.031 0h-58.767c-63.922 1.031-116.506-48.457-118.568-112.382 0 0 0 0 0-1.031v-16.496c0-11.341 12.372-17.527 23.713-17.527h248.477c11.341 0 22.682 6.186 22.682 17.527v16.496c-1.031 63.922-53.612 114.444-116.506 113.413zM675.323-52.476c2.062 30.93 35.054 62.891 74.232 62.891h58.767c38.147 0 71.139-31.961 73.201-62.891h-206.205z" />
</font>
</defs>
</svg>
